A
B
C
D
E
F
G
H
I
J
K
L
M
N
O
P
Q
R
S
T
U
V
W
X
Y
Z
0-9
DJ VIHAR & DJ AJDA - SLO & HR MIX 60

05-08-2020 14:36 naložil Ajda
Sejalci: 8 / Odjemalci: 0 / Velikost: 194.47 MB / Dokončani: 21
Prenesi torrent Poročaj torrent Opis torrenta NFO
Zvrst: Glasbeni
Kategorija: GLASBA > Glasba





Complete name : DJ VIHAR & DJ AJDA - SLO & HR MIX 60.mp3
Format : MPEG Audio
File size : 193 MiB
Duration : 1h 24mn
Overall bit rate mode : Constant
Overall bit rate : 320 Kbps
Encoded by : Lavf52.39.0
Writing library : LAME3.98

Audio
Format : MPEG Audio
Format version : Version 1
Format profile : Layer 3
Mode : Joint stereo
Duration : 1h 24mn
Bit rate mode : Constant
Bit rate : 320 Kbps
Channel(s) : 2 channels
Sampling rate : 48.0 KHz
Compression mode : Lossy
Stream size : 193 MiB (100%)
Writing library : LAME3.98




*******************************************************************************
~VSEBINA ~
*******************************************************************************

01. DARJA GAJŠEK - Beli cvet
02. WERNER - Zelene boje
03. JOLE - San snova
04. DINO PETRIČ - Vino i noč
05. ROBERT FICKER - Ja bolujem
06. ALEN VOGRINEC - Godine prolaze
07. SKUPINA CALYPSO - Rojena zame
08. KLAPA SKALA - Srce ki ljubi
09. MANCA ŠPIK - Nocoj
10. LIDIJA BAČIČ - Bježimo iz grada
11. ALEN NIZETIČ - Lete uspomene
12. DOMEN KUMER TIMOTEJ - Namesto tebe
13. TILEN LOTRIČ - Vino
14. MARKO ŠKUGOR - Tebi
15. DARJA GAJŠEK - Vredno je bilo
16. TANJA ŽAGAR - Moj roman
17. UČITELJICE - Proči če i to
18. BQL - Na frišno
19.ZDRAVKO SKENDER SERGIO - Mala istrijanka
20. POLKAHOLIKI - Sobica
21. LJUBAVNICI - Ne zaboravi me
22. JASMIN STAVROS - Moja marina
23. SAŠA KOVAČEVIČ - Moja malena
24. MEJAŠI - nije to vino
25. DEJAN VUNJAK - Ni je lepše kot si ti










DJ VIHAR & DJ AJDA - SLO & HR MIX 59

Klikni za povečavo!
06-03-2020 19:28 naložil Ajda
Sejalci: 7 / Odjemalci: 0 / Velikost: 231.05 MB / Dokončani: 55
Prenesi torrent Poročaj torrent Opis torrenta NFO
Kategorija: GLASBA > Glasba




------------------------------------------------------------------------------
Avdio podatki
-------------------------------------------------------------------------------
General
Complete name : DJ VIHAR & DJ AJDA - SLO & HR MIX 59.mp3
Format : MPEG Audio
File size : 230 MiB
Duration : 1h 40mn
Overall bit rate mode : Constant
Overall bit rate : 320 Kbps
Encoded by : Lavf52.39.0
Writing library : LAME3.98

Audio
Format : MPEG Audio
Format version : Version 1
Format profile : Layer 3
Mode : Joint stereo
Duration : 1h 40mn
Bit rate mode : Constant
Bit rate : 320 Kbps
Channel(s) : 2 channels
Sampling rate : 48.0 KHz
Compression mode : Lossy
Stream size : 230 MiB (100%)
Writing library : LAME3.98


*******************************************************************************
~VSEBINA ~
*******************************************************************************

01. LUKA BASI - META
02. SKaTER - Al Capone
03. EROSI - Ča če mi copacabana
04. GRUPA VIGOR - Drugo ime ljubavi
05. WERNER - Lagala
06. NUŠA ROJS - Slovensko dekle
07. JASTREBI - Ena iz Ljubljane
08. SINOVI - Moja mala
09. MARIO SEPP - Pile moje maleno
10. THE FRAJLE - ŽELJKO BEBEK - Žuta ruža
11. RUSKO RICHIE-ALEN ISLAMOVIĆ - Džaba džaba
12. BANANA BAND - Opet nasmijana
13. MANCA ŠPIK - Serenada
14. CECILIJA - Hej mladosti
15. PRAVILA IGRE - Pol srca
16. ALYA - Spet zaljubljena
17. MEJAŠI- VIGOR - Suzana
18. MARKO ŠKUGOR - Deset anđela
19. IVAN ZAK - Još mi fališ ti
20. LJUBAVNICI - Ništa nije slučajno
21. GORAN KARAN - Za generaciju
22. KUMOVI - Vikend dođe
23. POLKAHOLIKI - Povej povej
24. WERNER DARJA GAJŠEK - Samo sebe imava
25. LUKA BASI - Taxi
26. KVARTOPIRCI - Deklica
27. ALYA - Ili s tobom ili sama
28. KLAPA SKALA - Spomni se me
29. DOMEN KUMER-STIL- Levo desno
30. POLKAHOLIKI - Ako te pitaju







Das Vorspiel 2019 SloSubs DVDRip XviD AC3 Unknown

Klikni za povečavo!
31-08-2020 11:17 naložil ViHaR
Sejalci: 1 / Odjemalci: 0 / Velikost: 1.57 GB / Dokončani: 0
Prenesi torrent Poročaj torrent Opis torrenta NFO
Zvrst: Drama
Kategorija: FILMI > DVDRip



Das Vorspiel 2019 DVDRip XviD AC3 Unknown
Language(s): German | French
Size: 1.57 GB | Duration: 1hr 35mn | Container: AVI
Audio: AC-3 | 448 Kbps | 6 Channels
Video: XviD | 1907 Kbps | 720 x 388
Genre: Drama
Podnapisi: slovenski
https://www.imdb.com/title/tt8620154/


Nina Hoss, Simon Abkarian, Jens Albinus


Anna Bronsky is a violin teacher at the Conservatoire. Against the advice of her colleagues, she imposes the admission of a pupil, in whom she sees a great talent. With a lot of involvement, she prepares Alexander for the end-of-year exam and neglects her young son Jonas, who is also a violinist and ice hockey fan. She moves away more and more from her husband, so fond of him, the French "luthier" Philippe Bronsky. At the approach of audition, Anna pushes Alexander towards performances more and more exceptional. The decisive day, an accident occurs, heavy consequence.




De.Dag.S01.SLOSubs.1080p.WEBRip.x264-r

Klikni za povečavo!
26-08-2020 09:29 naložil System
Sejalci: 1 / Odjemalci: 0 / Velikost: 15.32 GB / Dokončani: 4
Prenesi torrent Poročaj torrent Opis torrenta
Zvrst: Triler
Kategorija: FILMI > TV - Serija
Anonimen nalagalec


De.Dag.S01.SLOSubs.1080p.WEBRip.x264-r
De Dag - Dan za preživetje
TV Series (2018)
Država: Belgija
Jezik: Nizozemščina
Datum izdaje:26. marec 2018 (Belgija)
Poznana tudi kot:Dan
Snemanje lokacij: Brugge, Zahodna Flandrija, Belgija
Prodkcija: FBO, Woestijnvis, VIER
Trajanje: 60 min / ep
Podnapisi: Slovenski - vgrajeni


Jeroen Perceval , Liesa Van der Aa , Sophie Decleir



Živčni dogodki hladnega zimskega dne, ki jih gledamo z dveh različnih vidikov. Nenavadne epizode pripovedujejo zgodbo skupine policijskih pogajalcev in specialnih sil, ki se v majhni bančni poslovalnici odzovejo na krizo talcev. Celo epizode pripovedujejo popolnoma iste dogodke, le skozi oči kriminalcev v notranjosti in njihovih žrtev.
Serija je narejena na poseben način, ki gledalcu prikaže dogajanje , ki ga običajna zgodba ne zazna in je prav v tem zanimivejša od klasičnih.
Zapleti v seriji si sledijo učinkovito , tako gledalca pritegne ob zaslon do konca, ki pa je sila presenetljiv.










Želim vam obilo užitkov v spremljanju serije in ne pozabite na sejanje!
Dua Lipa - Dua Lipa (Deluxe Edition) 2017 Mp3

Klikni za povečavo!
21-08-2020 15:56 naložil System
Sejalci: 2 / Odjemalci: 0 / Velikost: 142.48 MB / Dokončani: 7
Prenesi torrent Poročaj torrent Opis torrenta NFO
Zvrst: Glasbeni
Kategorija: GLASBA > Glasba
Anonimen nalagalec

---------------------------------------------------------------------
Dua Lipa - Dua Lipa (Deluxe Edition)
---------------------------------------------------------------------
Artist...............: Dua Lipa
Album................: Dua Lipa (Deluxe Edition)
Genre................: Pop
Source...............: CD
Year.................: 2017
Ripper...............: EAC (Secure mode) / LAME 3.92 & Asus CD-S520
Codec................: LAME 3.99
Version..............: MPEG 1 Layer III
Quality..............: Insane, (avg. bitrate: 320kbps)
Channels.............: Joint Stereo / 44100 hz
Tags.................: ID3 v1.1, ID3 v2.3
Information..........:
Ripped by............: somebody on 5. 10. 2017
Posted by............: somebody on 21. 08. 2020
News Server..........: news.astraweb.com
News Group(s)........: alt.binaries.pl.mp3
Included.............: NFO
---------------------------------------------------------------------
Tracklisting
---------------------------------------------------------------------
1. Dua Lipa - Genesis [03:24]
2. Dua Lipa - Lost In Your Light [03:22]
3. Dua Lipa - Hotter Than Hell [03:06]
4. Dua Lipa - Be The One [03:21]
5. Dua Lipa - Idgaf [03:36]
6. Dua Lipa - Blow Your Mind (Mwah) [02:57]
7. Dua Lipa - Garden [03:46]
8. Dua Lipa - No Goodbyes [03:34]
9. Dua Lipa - Thinking 'bout You [02:50]
10. Dua Lipa - New Rules [03:30]
11. Dua Lipa - Begging [03:12]
12. Dua Lipa - Homesick [03:49]
13. Dua Lipa - Dreams [03:38]
14. Dua Lipa - Room For 2 [03:27]
15. Dua Lipa - New Love [04:30]
16. Dua Lipa - Bad Together [03:57]
17. Dua Lipa - Last Dance [03:47]
Playing Time.........: 59:53
Total Size...........: 139,11 MB






Deep Purple - Whoosh! (2020) Flac

06-08-2020 09:26 naložil System
Sejalci: 1 / Odjemalci: 0 / Velikost: 380.16 MB / Dokončani: 5
Prenesi torrent Poročaj torrent Opis torrenta NFO
Zvrst: Glasbeni
Kategorija: GLASBA > Glasba
Anonimen nalagalec

---------------------------------------------------------------------
Deep Purple - Whoosh!
---------------------------------------------------------------------
Artist...............: Deep Purple
Album................: Whoosh!
Genre................: Rock
Source...............: CD
Year.................: 2020
Ripper...............: EAC (Secure mode) / LAME 3.92 & Asus CD-S520
Codec................: Free Lossless Audio Codec (FLAC)
Version..............: reference libFLAC 1.2.1 20070917
Quality..............: Lossless, (avg. compression: 73 %)
Channels.............: Stereo / 44100 HZ / 16 Bit
Tags.................: VorbisComment
Information..........:
Ripped by............: somebody on 6. 08. 2020
Posted by............: somebody on 6. 08. 2020
News Server..........: news.astraweb.com
News Group(s)........: alt.binaries.pl.mp3
Included.............: NFO
---------------------------------------------------------------------
Tracklisting
---------------------------------------------------------------------
1. Deep Purple - Throw My Bones [03:38]
2. Deep Purple - Drop the Weapon [04:23]
3. Deep Purple - We're All the Same in the Dark [03:44]
4. Deep Purple - Nothing at All [04:42]
5. Deep Purple - No Need to Shout [03:30]
6. Deep Purple - Step by Step [03:34]
7. Deep Purple - What the What [03:32]
8. Deep Purple - The Long Way Round [05:39]
9. Deep Purple - The Power of the Moon [04:08]
10. Deep Purple - Remission Possible [01:38]
11. Deep Purple - Man Alive [05:35]
12. Deep Purple - And the Address [03:35]
13. Deep Purple - Dancing in My Sleep [03:51]
Playing Time.........: 51:35
Total Size...........: 379,71 MB




Deep House Summer (2020) Mp3

31-07-2020 14:57 naložil System
Sejalci: 3 / Odjemalci: 0 / Velikost: 327.3 MB / Dokončani: 6
Prenesi torrent Poročaj torrent Opis torrenta NFO
Zvrst: Glasbeni
Kategorija: GLASBA > Glasba
Anonimen nalagalec

---------------------------------------------------------------------
VA - Deep House Summer 2020
---------------------------------------------------------------------
Artist...............: Various Artists
Album................: Deep House Summer 2020
Genre................: Deep House,House
Source...............: CD
Year.................: 2020
Ripper...............: EAC (Secure mode) / LAME 3.92 & Asus CD-S520
Codec................: LAME 3.99
Version..............: MPEG 1 Layer III
Quality..............: Insane, (avg. bitrate: 320kbps)
Channels.............: Stereo / 44100 hz
Tags.................: ID3 v1.1, ID3 v2.3
Information..........:
Ripped by............: somebody on 31. 07. 2020
Posted by............: somebody on 31. 07. 2020
News Server..........: news.astraweb.com
News Group(s)........: alt.binaries.pl.mp3
Included.............: NFO
---------------------------------------------------------------------
Tracklisting
---------------------------------------------------------------------
1. Dezza - Avenoir (Extended Mix) [05:46]
2. Braxton - Yoruba (Extended Mix) [07:14]
3. Dekkai - Cordelia (Extended Mix) [05:32]
4. djimboh & Mango - Klave (Extended Mix) [06:24]
5. Andre Sobota - Closer (Extended Mix) [06:32]
6. Not Now Please - Heva (Extended Mix) [07:01]
7. Farfetch'd - Uphere (Extended Mix) [06:12]
8. Undefined (MT) - Sqaaq (Extended Mix) [07:44]
9. Tommy Baynen - Laminar Flow (Extended Mix) [07:28]
10. Clameres - Serendipity (Extended Mix) [07:05]
11. Dekkai - Kolkata (Extended Mix) [08:58]
12. Tripswitch - Stigma (Extended Mix) [07:24]
13. Braxton - Clockwork (Extended Mix) [06:04]
14. Hexlogic - Infinite Loop (Extended Mix) [05:53]
15. Tommy Baynen - Effervescence (Extended Mix) [07:32]
16. Boxer - Dream Any Dream (Extended Mix) [06:49]
17. Andre Sobota - Layers (Extended Mix) [07:22]
18. Undefined (MT) - Layl (Extended Mix) [07:38]
19. Farfetch'd - Bell Damm (Extended Mix) [05:56]
20. Rodrigo Deem - Laguna (Extended Mix) [08:25]
Playing Time.........: 02:19:08
Total Size...........: 327,08 MB
Deep House Relax (2018) Mp3

31-07-2020 13:54 naložil System
Sejalci: 2 / Odjemalci: 0 / Velikost: 288.71 MB / Dokončani: 5
Prenesi torrent Poročaj torrent Opis torrenta NFO
Zvrst: Glasbeni
Kategorija: GLASBA > Glasba
Anonimen nalagalec

---------------------------------------------------------------------
VA - Deep House Relax (2018)
---------------------------------------------------------------------
Artist...............: Various Artists
Album................: Deep House Relax (2018)
Genre................: Deep House
Source...............: CD
Year.................: 2018
Ripper...............: EAC (Secure mode) / LAME 3.92 & Asus CD-S520
Codec................: LAME 3.10
Version..............: MPEG 1 Layer III
Quality..............: Insane, (avg. bitrate: 320kbps)
Channels.............: Stereo / 44100 hz
Tags.................: ID3 v1.1, ID3 v2.3
Information..........:
Ripped by............: somebody on 31. 07. 2020
Posted by............: somebody on 31. 07. 2020
News Server..........: news.astraweb.com
News Group(s)........: alt.binaries.pl.mp3
Included.............: NFO
---------------------------------------------------------------------
Tracklisting
---------------------------------------------------------------------
1. Robert Cristian - Dont Walk Away (Original Mix) [03:37]
2. Dani Corbalan - Be As I Am (Radio Edit) [03:05]
3. Topsy Crettz - Beyond The Mind (Original Mix) [04:13]
4. Audioboy - Eyes On You (Radio Edit) [02:47]
5. Hiss B& - Be Drunk (Original Mix) [04:33]
6. Ferjo De Gery & M.A.O.S. Beats - Fantasy (Original Mix) [04:39]
7. Robert Cristian - Missing You (Original Mix) [05:19]
8. Topsy Crettz - The Secret (Original Mix) [03:40]
9. Sean Norvis - Meteor Feelings (Radio Edit) [02:55]
10. Dr. Beat - Dimelo (Original Mix) [03:48]
11. Tony Vegas & A. Portsmouth - Soul Mates (Radio Edit) [03:20]
12. Ibiza Sun Of A Beach & Pete Ellement feat. Celina - Pa Pa (Original Mix)[02:41]
13. Dani Corbalan - Until Youre Here (Radio Edit) [03:02]
14. Robert Cristian - Find You (Original Mix) [03:11]
15. Ferjo De Gery - Comfortably Numb (Original Mix) [04:23]
16. Muesluem Ar - Set Me Free (Original Mix) [02:57]
17. Hiss Band - Mi Amor (Original Mix) [05:16]
18. Berat Oz - Take Me Here (Original Mix) [03:40]
19. DJ Tarkan feat. Diva Voca - Point Of No Return (lDani Corbalan Remix)[05:23]
20. Mr. Groove - You Cant Stop Me (Original Mix) [03:33]
21. Audioboy - Still Love Me (Radio Edit) [03:07]
22. Deep Emotion - I Wanna Be (Radio Edit) [03:03]
23. Topsy Crettz - Even If I (Original Mix) [03:52]
24. Robert Cristian - Belong To You (Original Mix) [03:13]
25. Audioboy - My Star (Radio Edit) [02:49]
26. Freaky DJs & LLIRIK feat. Kirsa - Make Me (Moonlight) (Original Mix)[02:46]
27. Hiss B& - Bia Ba Man (Original Mix) [04:27]
28. Ferjo De Gery - Memories (Original Mix) [03:17]
29. Robert Cristian - Twisted Love (Original Mix) [02:46]
30. Mr Pit & Sean Norvis feat. Justine Berg - Afraid To Feel (Ibiza Sun Of A Beach Remix)[03:55]
Playing Time.........: 01:49:29
Total Size...........: 288,42 MB
Deep House Relax (2020) Mp3

31-07-2020 13:04 naložil System
Sejalci: 3 / Odjemalci: 0 / Velikost: 257.6 MB / Dokončani: 6
Prenesi torrent Poročaj torrent Opis torrenta NFO
Zvrst: Glasbeni
Kategorija: GLASBA > Glasba
Anonimen nalagalec

---------------------------------------------------------------------
VA - Deep House Relax 2020
---------------------------------------------------------------------
Artist...............: Various Artists
Album................: Deep House Relax 2020
Genre................: Deep House, Electronic
Source...............: CD
Year.................: 2020
Ripper...............: EAC (Secure mode) / LAME 3.92 & Asus CD-S520
Codec................: LAME 3.10
Version..............: MPEG 1 Layer III
Quality..............: Insane, (avg. bitrate: 320kbps)
Channels.............: Stereo / 44100 hz
Tags.................: ID3 v1.1, ID3 v2.3
Information..........:
Ripped by............: somebody on 31. 07. 2020
Posted by............: somebody on 31. 07. 2020
News Server..........: news.astraweb.com
News Group(s)........: alt.binaries.pl.mp3
Included.............: NFO
---------------------------------------------------------------------
Tracklisting
---------------------------------------------------------------------
1. Remundo - Balearic Beauty (Original Mix) [03:30]
2. Audioboy - Beautiful (Extended Mix) [04:04]
3. H.A.Z.E - Can't Forget You (Original Mix) [04:19]
4. Can Sezgin & Ziya Baskal - Don't Believe (Original Mix) [03:58]
5. Sean Norvis & Copamore with Justine Berg - Embrace Me (Dani Corbalan Extended Remix)[03:47]
6. Topsy Crettz - End Of Summertime (Original Mix) [03:12]
7. Arif Zeynalov - First Step (Original Mix) [04:25]
8. Topsy Crettz - Ghost (Original Mix) [03:25]
9. Echevo - Go Away (Original Mix) [03:17]
10. ppdee - Godlike (Original Mix) [02:58]
11. Alican Sandik & Oguzhan - Hold On (Original Mix) [03:02]
12. Onurcan Guneyin - Hypnotise (Original Mix) [04:16]
13. Jay Aliyev - I Can High (Original Mix) [02:58]
14. ppdee - Illusion Of Us (Original Mix) [04:16]
15. Erbil Dzemoski - Just Like You (Original Mix) [03:31]
16. Hakan Akkus - Just My Time (VOLB3X Remix) [03:38]
17. Baris Bozan - Lose My Mind (Original Mix) [03:28]
18. Topsy Crettz - Momentum (Original Mix) [02:48]
19. Jay Aliyev - Move On (Original Mix) [03:47]
20. H.A.Z.E - Nepenthe (Original Mix) [03:51]
21. H.A.Z.E - Old Memories (Original Mix) [04:51]
22. H.A.Z.E - One More Time (Original Mix) [04:19]
23. RAFO - Peace Of Mind (Original Mix) [05:46]
24. Dani Corbalan - Redemption (Original Mix) [04:20]
25. Murat Özkaya - Reina (Original Mix) [02:55]
26. RAFO - Run Away (Original Mix) [06:44]
27. Murat Özkaya - Something About You (Original Mix) [03:37]
28. Jay Aliyev - Sun (Original Mix) [03:25]
Playing Time.........: 01:48:43
Total Size...........: 250,16 MB
Derailed.2005.SloSub.PAL.DVDR

Klikni za povečavo!
25-06-2020 08:41 naložil System
Sejalci: 1 / Odjemalci: 0 / Velikost: 4.37 GB / Dokončani: 3
Prenesi torrent Poročaj torrent Opis torrenta
Zvrst: Drama | Kriminalka | Triler
Kategorija: FILMI > DVD
Anonimen nalagalec

Derailed (2005)
Usodna prevara (2005)



-------------
INFO:
-------------
Source..........: DVD
Format..........: 16:9
Standard........: PAL
Release Size....: 4,36 GB
Width...........: 720 pixels
Height..........: 480 pixels
iMDB Link.......: KLIK
iMDB Rating.....: 6,6/10 (69.825)
Genre...........: Crime, Drama, Thriller
Country.........: USA/ UK
Language........: English/ French
Video...........: /
Audio...........: AC3 5.1-ch English
Subs............: Slovenian
Extras..........: yes
Regija..........: Prosto
Runtime.........: 113 min
Čas predvajanja.: 01:52.26

-------------
IGRALCI:
-------------
Vincent Cassel ....... LaRoche
Clive Owen ........... Charles Schine
Addison Timlin ....... Amy Schine
Melissa George ....... Deanna Schine
Jennifer Aniston ..... Lucinda Harris
Sandra Bee ........... Train Conductor
RZA .................. Winston Boyko
William Armstrong .... Accountant
Tom Conti ............ Eliot Firth
Rachael Blake ........ Susan Davis
Richard Leaf ......... Night Clerk Ray
Xzibit ............... Dexter
Catherine McCord ..... Avery Price Receptionist
Denis O'Hare ......... Jerry the Lawyer
Georgina Chapman ..... Candy

-------------
OPIS:
-------------
Lucinda je očarljiva, lepa in zapeljiva. Čeprav imata družino,
se neustavljivo privlačita. Kosila prerastejo v pijačo po službi
in kmalu se Charles in Lucinda znajdeta v hotelski sobi. Njuno
nežno romanco pa skali LaRoche, nasilni tujec, ki vdre v sobo.
Nedolžna aferica postane prava nočna mora, veliko bolj nevarna in
nasilna, kot bi si lahko kdo mislil.

V Charlesovem življenju se začnejo prepletati prevara, izsiljevanje,
nasilje in zločin. Ženi in policiji se ne more zaupati. Ujame se v
neznan svet, medtem ko njegovo staro življenje počasi bledi...



Dark Encounter 2019 SrbSubs 720p BRRip XviD AC3 Unknown

Klikni za povečavo!
13-06-2020 12:04 naložil ViHaR
Sejalci: 1 / Odjemalci: 0 / Velikost: 2.3 GB / Dokončani: 12
Prenesi torrent Magnet Link Poročaj torrent Opis torrenta NFO
Zvrst: Skrivnosten | Triler | Z.F.
Kategorija:



Dark Encounter 2019 720p BRRip XviD AC3 Unknown
Language(s): English
Size: 2.30 GB | Duration: 1hr 38mn | Container: AVI
Audio: AC-3 | 448 Kbps | 6 Channels
Video: XviD | 2907 Kbps | 1280 x 536
Genre: Mystery | Sci-Fi | Thriller
Podnapisi: srbski
https://www.imdb.com/title/tt8269120/


Laura Fraser, Mel Raido, Sid Phoenix


8 y.o. Maisie went missing in 1982 and a memorial is held a year later. That evening, strange lights, sounds etc. are observed in the woods outside. Aliens.





Dear Dictator 2017 SrbSubs 720p BRRip XviD AC3 Unknown

Klikni za povečavo!
08-06-2020 13:13 naložil ViHaR
Sejalci: 1 / Odjemalci: 0 / Velikost: 3.13 GB / Dokončani: 5
Prenesi torrent Magnet Link Poročaj torrent Opis torrenta NFO
Zvrst: Komedija
Kategorija:



Dear Dictator 2017 720p BRRip XviD AC3 Unknown
Language(s): English
Size: 3.12 GB | Duration: 1hr 30mn | Container: AVI
Audio: AC-3 | 448 Kbps | 6 Channels
Video: XviD | 4498 Kbps | 1280 x 696
Genre: Comedy
Podnapisi : srbski
https://www.imdb.com/title/tt5779540/


Michael Caine, Odeya Rush, Katie Holmes


Ko politični nemiri prisilijo britansko-karibskega diktatorja (Michael Caine), da zapusti svoje otoško ljudstvo, poišče zavetje in skrivališče pri uporniški najstnici Tatiani (Odeya Rush) v ameriškem predmestju. K njej je prišel po pisemskem dopisovanju zaradi naloge “Pismo slavni osebi”. Vendar ga mora skrivati pred mamo (Katie Holmes), medtem ko jo bivši diktator poučuje, kako naj sproži revolucijo in premaga “zlobne punce” v šoli.


Domino.2019.SloSub.1080p.BluRay.x264.AAC-[cyd]

Klikni za povečavo!
25-05-2020 17:34 naložil
Sejalci: 1 / Odjemalci: 0 / Velikost: 1.7 GB / Dokončani: 17
Prenesi torrent Magnet Link Poročaj torrent Opis torrenta NFO
Kategorija: FILMI > BluRay-1080

IMDb info:
◎ Naslov, leto, dolžina, zvrst: Domino (2019) | 1h 29min | Action, Crime, Thriller
◎ Povzetek: Hitchcockov učenec, mojster stilskih kriminalk in napetih preobratov, režiser filma Misija: Nemogoče, Brian De Palma, nam prinaša napet triler o policistu, ki išče pravico za partnerjev umor. Policist iz Kopenhagna zahteva pravico za umor partnerja s strani članov ISIS-a in se znajde sredi igre mačke in miši z dvoličnim agentom Cie, ki uporablja morilca kot orodje, da bi ujel druge član ISIS-a.
———————————————————————————————————————————————————————————
NAPOVEDNIK:
——————————————————————————————————————————————————————————————————
PODNAPISI:
◎ Jezik : slovenski [vstavljeni / softcoded / multiplexed]
◎ Prevedel : RETAiL, TVRip - Toyan, priredil in uredil metalcamp, tehnična obdelava DrSi
——————————————————————————————————————————————————————————————————
VIR:
◎ Source:
Domino.2019.1080p.BluRay.H264.AAC-RARBG.mp4
◎ After coding:
Domino.2019.SloSub.1080p.BluRay.x264-[cyd].mkv
———————————————————————————————————————————————————————————
POVEZAVA:
◎ Seedbox, upload speed: 20000 Mbps
———————————————————————————————————————————————————————————
Driveways.2019.SrbSub.1080p.WEBRip.x265-[cyd]

Klikni za povečavo!
22-05-2020 18:11 naložil
Sejalci: 1 / Odjemalci: 0 / Velikost: 1.32 GB / Dokončani: 7
Prenesi torrent Magnet Link Poročaj torrent Opis torrenta NFO
Zvrst: Drama
Kategorija:

IMDb info:
◎ Naslov, leto, dolžina, zvrst: Driveways (2019) 1h 23min | Drama |
◎ Povzetek: A lonesome boy accompanies his mother on a trip to clean out his late aunt's house, and ends up forming an unexpected friendship with the retiree who lives next door.
———————————————————————————————————————————————————————————
NAPOVEDNIK:
——————————————————————————————————————————————————————————————————
PODNAPISI:
◎ Jezik : srbski latinica [vstavljeni / softcoded / multiplexed]
——————————————————————————————————————————————————————————————————
VIR:
◎ Source:
Driveways.2019.1080p.WEBRip.x265-RARBG.mp4
◎ After coding:
Driveways.2019.SrbSub.1080p.WEB.x265-[cyd].mkv
———————————————————————————————————————————————————————————
POVEZAVA:
◎ Seedbox, upload speed: 20000 Mbps
———————————————————————————————————————————————————————————
Dark.Waters.2019.SLOSubs.720p.WEB-DL.x264.AAC-GENOX.mkv

Klikni za povečavo!
21-05-2020 18:10 naložil NERON
Sejalci: 1 / Odjemalci: 0 / Velikost: 2.83 GB / Dokončani: 9
Prenesi torrent Magnet Link Poročaj torrent Opis torrenta
Kategorija: FILMI > WEBRip-720



Naziv: Dark.Waters.2019.SLOSubs.720p.WEB-DL.x264.AAC-GENOX
Leto izida .........: 2019
Velikost ...........: 2.83 GiB
Dolžina ............: 2 h 1 min
Video ...............: 3156 kb/s | 1280x720 | 25 fps
Zvok .................: AAC 2.0 @ 232 Kbps
Jezik ................: Angleški | Korejski
Kodek.................: x264
Zvrst...............: Biografski | Triler | Drama | Zgodovinski
Država .............: ZDA
Podnapisi .........: SLOVENSKI (RETAiL- VGRAJENI)
Prevod: BLITZ Film


Mark Ruffalo ... Robert Bilott
Anne Hathaway ... Sarah Barlage Bilott
Tim Robbins ... Tom Terp
Bill Pullman ... Harry Dietzler
Bill Camp ... Wilbur Tennant
Victor Garber ... Phil Donnelly
Mare Winningham ... Darlene Kiger
William Jackson Harper ... James Ross


Robert Bilott je ugledni korporacijski odvetnik, ki je vso kariero posvetil
zastopanju velikih podjetij kemične industrije. Nekega dne pride k njemu v
pisarno moški, ki trdi, da je celo mesto onesnaženo s kemičnimi stranskimi
proizvodi, ki pogumno vplivajo na živali in na ljudi. Robert gre v majhno mesto
raziskat situacijo in dojame, kakšne posledice pušča kemična industrija na
ljudeh in okolju ter tudi dejstvo, da so vsa poročila kemičnih podjetij, njegovih
dotedanjih strank, prirejena. Robert iz pozicije insajderja vloži tožbo proti eni
največjih ameriških podjetij, da bi dokazal, da so že 40 let prikrivali informacije
o zastrupljanju pitne vode. Da bi razkril skrivnosti vplivnežev, se Robert spusti v
pravni voj za rešitev ljudi in okolja ter skuša sam proti vsem dokazati resnico.

NAPOVEDNIK:








Divji_valovi

Klikni za povečavo!
23-04-2020 17:30 naložil NERON
Sejalci: 1 / Odjemalci: 0 / Velikost: 701.78 MB / Dokončani: 45
Prenesi torrent Poročaj torrent Opis torrenta
Kategorija: FILMI > XviD

SURF'S UP (2007)

DIVJI VALOVI
SLOVENSKA SIHRONIZACIJA

Amazon.com: Watch Surf's Up | Prime Video

Žanr ................: Animacijski / Družinski
Dolžina ...........: 85 minut
Leto ................: 2007

Država ...........: ZDA
Kodek ............: XviD
Slika ...............: 720x384 1003 kbps 25 fps

Jezik ...............: Slovenski
Zvok ...............: Dolby Digital AC3 2.0 192kb/s


Glasovi Slovenski glasovi
Shia LaBeouf...........Cody Maverick.......Lovro Lah
Jon Heder................Chicken Joe............Vojko Belšak
Zooey Deschanel....Lani.........................Tinkara Končar
Jeff Bridges.............The Geek.................Roman Končar
James Woods..........Reggie Belafonte.....---------------
Napovedovalec.......-----------------....Igor E. Bergant


Ustvarjalci Sezone lova in režiserja drugega dela Sveta igrač ter
Tarzana nam prinašajo zgodbo o radoživem pingvinu Codyju, ki se
odloči udeležiti največjega tekmovanja v deskanju na valovih. Na
poti se mu s pomočjo zabavnih naključij pridružijo čudaški piščanec,
preračunljiva menedžerska vidra, kolerični čapljasti iskalec mladih
talentov in prijazna pingvinja vodna reševalka. Skupaj se pogumno
spopadejo z največjimi valovi in ob tem spoznavajo, da resničnemu
zmagovalcu ni potrebno vedno biti prvi. Film je sinhroniziran v
slovenščino.

NAPOVEDNIK





Danger.Close.The.Battle.of.Long.Tan.2019.SLOSubs.BRRip.XviD-DrSi

Klikni za povečavo!
22-04-2020 19:28 naložil NERON
Sejalci: 1 / Odjemalci: 0 / Velikost: 2.62 GB / Dokončani: 5
Prenesi torrent Magnet Link Poročaj torrent Opis torrenta
Zvrst: Akcija | Drama | Vojni
Kategorija:

DANGER CLOSE: THE BATTLE OF LONG TAN (2019)
BITKA PRI LONG TANU

vojna akcija po resničnih dogodkih

V spomin na može, ki so dali svoje življenje
v bitki za Long Tan 18. avgusta 1966.




Naziv: Danger.Close.The.Battle.of.Long.Tan.2019.SLOSubs.BRRip.XviD-DrSi
Source: Danger.Close.The.Battle.of.Long.Tan.2019.720p.BluRay.DD5.1.x264-iFT

Leto izida ........: 2019
Velikost ...........: 2,60 GB
Dolžina ............: 118 Minut
Video ...............: 2709 Kbps | 720x304 | 23,976 fps
Zvok ................: Dolby Digital AC3 5.1 @ 448 Kbps
Kodek...............: XviD
Zvrst………….: Akcija | Vojni | Drama
Država .............: Avstralija
Jezik ................: Angleški

Podnapisi ........: Slovenski (RETAiL)
Prevod: BLITZ Film
HC SubRip: lesi89 – Hvala!
Priredil: metalcamp

Tehnična obdelava: DVD Rippers Slovenija

Režija..........: Kriv Stenders
Scenarij.......: Stuart Beattie, James Nicholas


Travis Fimmel ... Major Harry Smith
Toby Blome ... Private Bill 'Yank' Akell
Alexander England ... Warrant Officer Class 2 Jack Kirby
Aaron Glenane ... Captain Morrie Stanley
Uli Latukefu ... Bombardier Ray Ngatai
Richard Te Are ... Gunner Murry Watene
Luke Bracey ... Sergeant Bob Buick
Sean McCarthy ... Private Vic Grice
Mojean Aria ... Second Lieutenant Gordon Sharp
Ryan Hance ... Private Barry 'Custard' Meller


Južni Vietnam, 18. avgusta 1966. Na plantaži kavčuka Long Tan se major Smith
in njegovih 108 mladih, večinoma neizkušenih avstralskih in novozelandskih
vojakov, bori z močnimi sovražnimi silami komunističnega severa. Skoraj brez
streliva je mrtvih vse več, zato je vsak primoran rešiti sebe in zmagati častno,
spoštljivo in pogumno.

NAPOVEDNIK:

















Danger.Close.2019.SloSub.1080p.BluRay.x264-[cyd]

19-04-2020 09:20 naložil
Sejalci: 1 / Odjemalci: 0 / Velikost: 2.25 GB / Dokončani: 7
Prenesi torrent Magnet Link Poročaj torrent Opis torrenta NFO
Zvrst: Akcija | Drama | Vojni
Kategorija: FILMI > BluRay-1080


——————————————————————————————————————————————————————————————————
IMDb info:
◎ Naslov: Danger Close: The Battle of Long Tan
◎ Leto: 2019
◎ Zvrst: akcija, drama, vojni
◎ Jezik: angleški
◎ Ocena: 7,00
◎ Povzetek: Južni Vietnam, 18. avgusta 1966. Na plantaži kavčuka Long Tan se major Smith in njegovih 108 mladih, večinoma neizkušenih avstralskih in novozelandskih vojakov, bori z možnimi sovražnimi silami komunističnega severa. Skoraj brez streliva je mrtvih vse več, zato je vsak primoran rešiti sebe in zmagati častno, spoštljivo in pogumno.
———————————————————————————————————————————————————————————
YouTube URADNI NAPOVEDNIK:
——————————————————————————————————————————————————————————————————
PODNAPISI:
◎ Jezik : slovenski [vstavljeni / softcoded / multiplexed]
——————————————————————————————————————————————————————————————————
VIR:
◎ Source:
Danger.Close.2019.1080p.BluRay.H264.AAC-RARBG.mp4
◎ After coding:
Danger.Close.2019.SloSub.1080p.BluRay.x264-[cyd].mkv
————————————————————————————————————————————————————-——————
POVEZAVA:
◎ Seedbox NO Speed Limit
—————————————————————————————————————————————-—————————————
———————————————————————————————————————————————————————————
Dolina.miru.1956.SLOVENiAN.BRRip.XviD-DrSi

04-04-2020 14:57 naložil System
Sejalci: 1 / Odjemalci: 0 / Velikost: 1.9 GB / Dokončani: 5
Prenesi torrent Magnet Link Poročaj torrent Opis torrenta
Zvrst: Drama | Vojni
Kategorija:
Anonimen nalagalec

——————————————————————————————————————————————————————————————————
Release Info:
Naziv: Dolina.miru.1956.SLOVENiAN.BRRip.XviD-DrSi
Source: Dolina.miru.1956.Slovenian.BluRay.1080p.DTS-HD.MA-5.1.x264-DrSi
Leto izida ........: 1956
Velikost ...........: 1,90 GB
Dolžina ............: 88 Minut
Video ...............: ČB | 2778 Kbps | 720x528 (4:3) | 23,976 fps
Zvok ................: Dolby Digital AC3 5.1 @ 448 kbps
Kodek...............: XviD
Zvrst………….: Vojni | Drama
Država………..: Jugoslavija
Jezik ................: Slovenski, Angleški, Nemški
Podnapisi ........: Slovenski (RETAiL-za tuje dialoge)
Uredil: metalcamp
Tehnična obdelava: DVD Rippers Slovenija
IMDb Ocena ...: 7.7/10 (255 glasov)
IMDb Info .......: LiNK
Režija.........: France Štiglic
Scenarij.......: Ivan Ribčc, France Jamnik
IGRAJO:
John Kitzmiller ... Sgt. Jim
Evelyne Wohlfeiler ... Lotti
Tugo Stiglic ... Marko
Boris Kralj ... Strumfuhrer
Francek Drofenik
Maks Furijan ... Scharfuhrer
Anton Homar
Janez Cuk ... Leader
VSEBINA:.
Zgodnja klasika jugoslovanskega vojnega filma v režiji Franceta Štiglica,
ki je igralcu Johnu Kitzmillerju leta 1957 prinesla nagrado za najboljšo
moško vlogo v Cannesu, je bila ob svoji šestdesetletnici in v restavrirani
različici leta 2016 kot prvi slovenski film predstavljena v prestižni
sekciji Canske klasike.
Po bombardiranju slovenskega mesta med drugo svetovno vojno deček Marko
in deklica Lotti, ki je nemškega rodu, ostaneta brez staršev. V sirotišnici začne
mala Lotti pripovedovati dečku o dolini, o kateri ji je nekoč pravila babica
in kjer vedno vlada mir. Odločena, da poiščeta to »dolino miru«, otroka zbežita
iz sirotišnice. Na poti srečata ameriškega pilota Jima. Čeprav so mu za petami
nemški vojaki in partizani, se Jim junaško odloči, da ju bo prek sovražnega
ozemlja pospremil do cilja.
Downhill.2020.SloSub.1080p.WEB.x264-[cyd]

Klikni za povečavo!
02-04-2020 15:30 naložil
Sejalci: 0 / Odjemalci: 1 / Velikost: 1.64 GB / Dokončani: 16
Prenesi torrent Magnet Link Poročaj torrent Opis torrenta NFO
Zvrst: Drama | Komedija
Kategorija:

——————————————————————————————————————————————————————————————————
IMDb info:
◎ Naslov, leto: Downhill (2020)
◎ Zvrst: komedija, drama
◎ Jezik: angleški
◎ Ocena: 5,00
◎ Povzetek: Barely escaping an avalanche during a family ski vacation in the Alps, a married couple is thrown into disarray as they are forced to reevaluate their lives and how they feel about each other.
———————————————————————————————————————————————————————————
YouTube URADNI NAPOVEDNIK:
——————————————————————————————————————————————————————————————————
PODNAPISI:
◎ Jezik : slovenski [vstavljeni / softcoded / multiplexed]
——————————————————————————————————————————————————————————————————
VIR:
◎ Source:
Downhill.2020.1080p.WEBRip.x264-RARBG.mp4
◎ After coding:
Downhill.2020.SloSub.1080p.WEB.x264-[cyd].mkv
———————————————————————————————————————————————————————————
CONNECTION:
◎ Seedbox, speed Limit: NO
———————————————————————————————————————————————————————————
Dear.Dictator.2017.SrbSub.1080p.BluRay.x264-[cyd]

Klikni za povečavo!
02-04-2020 11:03 naložil
Sejalci: 1 / Odjemalci: 0 / Velikost: 1.44 GB / Dokončani: 21
Prenesi torrent Magnet Link Poročaj torrent Opis torrenta NFO
Zvrst: Komedija
Kategorija: FILMI > BluRay-1080

——————————————————————————————————————————————————————————————————
IMDb info:
◎ Naslov, leto: Dear Dictator (2017)
◎ Zvrst: komedija, .||.
◎ Jezik: angleški
◎ Ocena: 5,1
◎ Povzetek: When political turmoil forces a British-Caribbean dictator to flee his island nation, he seeks refuge and hides with a rebellious teenage girl in suburban America, and ends up teaching the young teen how to start a revolution and overthrow the "mean girls" at her high school.
———————————————————————————————————————————————————————————
YouTube URADNI NAPOVEDNIK:
——————————————————————————————————————————————————————————————————
PODNAPISI:
◎ Jezik : srbski latinica [vstavljeni / softcoded / multiplexed]
——————————————————————————————————————————————————————————————————
VIR:
◎ Source:
Dear.Dictator.2017.1080p.BluRay.x264-[YTS.AM].mp4
◎ After coding:
Dear.Dictator.2017.SrbSub.1080p.BluRay.x264-[cyd].mkv
———————————————————————————————————————————————————————————
CONNECTION:
◎ Seedbox, speed Limit: NO
———————————————————————————————————————————————————————————
Dolittle.2020.SloSub.1080p.HDRip.x264-[cyd]

Klikni za povečavo!
26-03-2020 11:50 naložil System
Sejalci: 1 / Odjemalci: 0 / Velikost: 3.61 GB / Dokončani: 22
Prenesi torrent Poročaj torrent Opis torrenta NFO
Kategorija: FILMI > HDRip
Anonimen nalagalec

——————————————————————————————————————————————————————————————————
IMDb info:
◎ Naslov: Dolittle
◎ Leto: 2020
◎ Zvrst: akcija, pustolovski, komedija
◎ Jezik: angleški
◎ Ocena: 5,6
◎ Povzetek: A physician who can talk to animals embarks on an adventure to find a legendary island with a young apprentice and a crew of strange pets.
———————————————————————————————————————————————————————————
YouTube URADNI NAPOVEDNIK:
——————————————————————————————————————————————————————————————————
PODNAPISI:
◎ Jezik : slovenski [vstavljeni / softcoded / multiplexed]
——————————————————————————————————————————————————————————————————
VIR:
◎ Source:
Dolittle.2020.1080p.HDRip.x264.AAC2.0.mp4
◎ After coding:
Dolittle.2020.SloSub.1080p.HDRip.x264-[cyd].mkv
————————————————————————————————————————————————————-——————
POVEZAVA:
◎ Seedbox NO Speed Limit
—————————————————————————————————————————————-—————————————
Dont.Speak.2020.SrbSub.1080p.WEB.x264-[cyd]

Klikni za povečavo!
21-03-2020 11:57 naložil
Sejalci: 1 / Odjemalci: 0 / Velikost: 1.6 GB / Dokončani: 12
Prenesi torrent Magnet Link Poročaj torrent Opis torrenta NFO
Zvrst: Grozljivka
Kategorija:

———————————————————————————————————————————————————————-———
IMDb info:
◎ Naslov, leto : Don't Speak (2020)
◎ Zvrst: grozljivka
◎ Jezik: angleški
◎ Ocena: 4,2
◎ Povzetek: Upon arriving at their grandparents farm, a family soon realise the entire town has been taken out by an unknown monster.. And soon, they become its prey..
———————————————————————————————————————————————————————————
YouTube URADNI NAPOVEDNIK:
——————————————————————————————————————————————————————————————————
PODNAPISI:
◎ Jezik : srbski latinica [vstavljeni / softcoded / multiplexed]
——————————————————————————————————————————————————————————————————
VIR:
◎ Source:
Dont.Speak.2020.1080p.WEBRip.x264-RARBG.mp4
◎ After coding:
Dont.Speak.2020.SrbSub.1080p.WEB.x264-[cyd].mkv
————————————————————————————————————————————————————-——————
POVEZAVA:
◎ Seedbox, speed limit: NO
—————————————————————————————————————————————-—————————————
Dirt.2018.SrbSub.1080p.WEB.x264-[cyd]

Klikni za povečavo!
28-02-2020 14:25 naložil
Sejalci: 1 / Odjemalci: 0 / Velikost: 1.94 GB / Dokončani: 10
Prenesi torrent Magnet Link Poročaj torrent Opis torrenta NFO
Zvrst: Akcija | Drama | Sportni
Kategorija:

IMDb info:
◎ Naslov, leto : Dirt (2018)
◎ Zvrst: akcija, drama, športni
◎ Jezik: angleški
◎ Ocena: 6,2
◎ Povzetek: In search of a lifeline for his struggling off road racing team, a man takes on a young car thief looking for a second chance, but as their worlds collide, they must struggle to forge a successful alliance.
———————————————————————————————————————————————————————————
YouTube URADNI NAPOVEDNIK:
——————————————————————————————————————————————————————————————————
PODNAPISI:
◎ Prevod : Goran87BG
◎ Jezik : srbski latinica [vstavljeni / softcoded / multiplexed]
——————————————————————————————————————————————————————————————————
VIR:
◎ Source:
Dirt.2018.1080p.WEBRip.x264-RARBG.mp4
◎ After coding:
Dirt.2018.SrbSub.1080p.WEB.x264-[cyd].mkv
————————————————————————————————————————————————————-——————
POVEZAVA:
◎ Seedbox, speed limit: NO
—————————————————————————————————————————————-—————————————
DJ VIHAR & DJ AJDA - SLO & HR MIX 58

Klikni za povečavo!
26-02-2020 18:28 naložil Ajda
Sejalci: 2 / Odjemalci: 0 / Velikost: 187.7 MB / Dokončani: 32
Prenesi torrent Poročaj torrent Opis torrenta NFO
Kategorija: GLASBA > Glasba





~ DJ VIHAR & DJ AJDA - SLO & HR MIX 58 ~
*******************************************************************************

-------------------------------------------------------------------------------
Avdio podatki
-------------------------------------------------------------------------------
Complete name : DJ VIHAR & DJ AJDA - SLO & HR MIX 58
Format : MPEG Audio
File size : 187 MiB
Duration : 1h 21mn
Overall bit rate mode : Constant
Overall bit rate : 320 Kbps
Encoded by : Lavf52.39.0
Writing library : LAME3.98

Audio
Format : MPEG Audio
Format version : Version 1
Format profile : Layer 3
Mode : Joint stereo
Duration : 1h 21mn
Bit rate mode : Constant
Bit rate : 320 Kbps
Channel(s) : 2 channels
Sampling rate : 48.0 KHz
Compression mode : Lossy
Stream size : 187 MiB (100%)
Writing library : LAME3.98

-------------------------------------------------------------------------------
Vsebina
-------------------------------------------------------------------------------
01. ZLATKO DOBRIČ - Luda noč
02. MALIGANI - Tisoču milja
03. DAVOR BORNO - Živote moj
04. ZORAN CILENŠEK - Evo mene opet
05. BEČO & COMPANY - Sretno živjeti
06. ZLATKO PEJAKOVIČ - Od ljubavi prave gineš
07. THE DEKLE - Od Donava do Jadrana
08. POSKOČNI NUŠA DERENDA - Beli oblaki bele snežinke
09. MARIO SEPP - Mjesečina i gitara
10. CALYPSO in URBAN VIDMAR - Le rezerva
11. BORIS ROGOZNICA - Sve grehe piši na mene
12. MATEVŽ VISOČNIK DŽO MARAĆIĆ MAKI - Zelena kuča
13. MATEVŽ VISOČNIK NINA MARSEL - Duet življenja
14. SANDI CENOV - Dođe mi
15. KOKTELSI - Nočna igračka
16. VANJA KUŠTRIN - Naj vino greje me
17. ELIZABETA NOVAK - Ne sprašuj
18. TARAPANA - Momačka
19. BEST - Anđeli
20. TIHY - Dođi bliže
21. WERNER - Kada voli srce južnjačko
22. MATEJA - Lažem
23. NINA DONELLI - Mili