A
B
C
D
E
F
G
H
I
J
K
L
M
N
O
P
Q
R
S
T
U
V
W
X
Y
Z
0-9
DJ VIHAR & DJ AJDA - SLO & HR MIX 57

Klikni za povečavo!
14-09-2019 11:14 naložil Ajda
Sejalci: 6 / Odjemalci: 0 / Velikost: 166.94 MB / Dokončani: 37
Prenesi torrent Poročaj torrent Opis torrenta NFO
Kategorija: GLASBA > Glasba




-------------------------------------------------------------------------------
Avdio podatki
-------------------------------------------------------------------------------
Complete name : DJ VIHAR & DJ AJDA - SLO & HR MIX 57
Format : MPEG Audio
File size : 166 MiB
Duration : 1h 12mn
Overall bit rate mode : Constant
Overall bit rate : 320 Kbps
Encoded by : Lavf52.39.0
Writing library : LAME3.98

Audio
Format : MPEG Audio
Format version : Version 1
Format profile : Layer 3
Mode : Joint stereo
Duration : 1h 12mn
Bit rate mode : Constant
Bit rate : 320 Kbps
Channel(s) : 2 channels
Sampling rate : 48.0 KHz
Compression mode : Lossy
Stream size : 166 MiB (100%)
Writing library : LAME3.98


01. SKUPINA ZAKA PA NE - Atmosfera
02. ŽELJKO BEBEK - 100 sam dana pio
03. ZVITA FELTNA - Zate
04. JOLE - Godišnjica
05. DANIJEL POPOVIČ - Hej lane moje
06. CECILIJA - Mangup
07. VIGOR /Feat ISSAC PALMA - Šatori
08. KLAPA PUNTAMIKA - Noč punog meseca
09. SAŠA LENDERO / DOMEN KUMER - 100%
10. ALYA -Sedam dana na moru
11. ARRIVA - Moje petke
12 . IVICA ŠEPERIČ / JASMIN STAVROS - Pravi dalmatinac
13. IVANA KOVAČ - Ti
14. DEJAN VUNJAK - Čist majčken
15. MEJAŠI - Ja još mogu
16. THE FRAJLE - Nočas si moje vino
17. MARKO ŠKUGOR - Kako te jubim ja
18. ZVITA FELTNA - Gin in tonic
19. DAVID RICOV - Adio pape, adio mama
20. NON STOP / JASMIN STAVROS - Tutta forza
21. DOMEN KUMER - Prva runda


Dont.Go.2018.SrbSub.720p.BluRay.x264.AAC-[cyd]

Klikni za povečavo!
Ponedeljek at 21:01 naložil Reaper
Sejalci: 6 / Odjemalci: 0 / Velikost: 2.12 GB / Dokončani: 8
Prenesi torrent Poročaj torrent Opis torrenta NFO
Zvrst: Skrivnosten
Kategorija: FILMI > BRRip

——————————————————————————————————————————————————————————————————
IMDb info:
◎ Naslov: Don't Go
◎ Leto: 2018
◎ Zvrst: skrivnosten
◎ Jezik: angleški
◎ Ocena: 5,2
◎ Povzetek: Devastated by his daughter's death in a terrible accident, Ben becomes convinced that he can bring her back through a recurring dream. But is it just a dream? Or is Ben losing his mind?
———————————————————————————————————————————————————————————
YouTube URADNI NAPOVEDNIK:
——————————————————————————————————————————————————————————————————
PODNAPISI:
◎ Prevod : adm1r
◎ Jezik : srbski latinica [vstavljeni / softcoded / multiplexed]
——————————————————————————————————————————————————————————————————
VIR:
◎ Source:
Dont Go 2018 LIMITED 720p BRRip XviD AC3 Unknown.avi
◎ After coding:
Dont.Go.2018.SrbSub.720p.BRRip.x264-[cyd].mkv
————————————————————————————————————————————————————-——————
POVEZAVA:
◎ Seedbox NO Speed Limit
—————————————————————————————————————————————-—————————————
Dolittle.2020.SrbSub.1080p.HDRip.x264-[cyd]

Klikni za povečavo!
11-02-2020 06:59 naložil Reaper
Sejalci: 6 / Odjemalci: 1 / Velikost: 3.61 GB / Dokončani: 22
Prenesi torrent Poročaj torrent Opis torrenta NFO
Zvrst: Akcija | Pustolovski | Z.F.
Kategorija: FILMI > HDRip

——————————————————————————————————————————————————————————————————
IMDb info:
◎ Naslov: Dolittle
◎ Leto: 2020
◎ Zvrst: akcija, pustolovski, komedija
◎ Jezik: angleški
◎ Ocena: 5,6
◎ Povzetek: A physician who can talk to animals embarks on an adventure to find a legendary island with a young apprentice and a crew of strange pets.
———————————————————————————————————————————————————————————
YouTube URADNI NAPOVEDNIK:
——————————————————————————————————————————————————————————————————
PODNAPISI:
◎ Prevod : SiČa
◎ Jezik : srbski latinica [vstavljeni / softcoded / multiplexed]
——————————————————————————————————————————————————————————————————
VIR:
◎ Source:
Dolittle.2020.1080p.HDRip.x264.AAC2.0-STUTTERSHIT.mp4
◎ After coding:
Dolittle.2020.SrbSub.1080p.HDRip.x264-[cyd].mkv
————————————————————————————————————————————————————-——————
POVEZAVA:
◎ Seedbox NO Speed Limit
—————————————————————————————————————————————-—————————————
Dracula.2020.S01.SloSubs.1080p.WEB.x264.AC3-[cyd]

Klikni za povečavo!
30-01-2020 12:11 naložil Reaper
Sejalci: 1 / Odjemalci: 0 / Velikost: 5.9 GB / Dokončani: 4
Prenesi torrent Poročaj torrent Opis torrenta NFO
Zvrst: Drama | Grozljivka
Kategorija: FILMI > WEBRip-1080

——————————————————————————————————————————————————————————————————
IMDb info:
◎ Naslov: Dracula
◎ Leto: 2019
◎ Sezona: 1
◎ Epizode:
◎ Zvrst: grozljivka, drama
◎ Jezik: angleški
◎ Ocena: 6,9
◎ Igrajo:
Claes Bang, Dolly Wells, Morfydd Clark
◎ Povzetek: In 1897 Transylvania, the blood-drinking Count draws his plans against Victorian London.
———————————————————————————————————————————————————————————
YouTube URADNI NAPOVEDNIK:
——————————————————————————————————————————————————————————————————
PODNAPISI:
◎ Prevod : Grimpy
◎ Priredba: [cyd]
◎ Jezik : slovenski latinica [vstavljeni / softcoded / multiplexed]
——————————————————————————————————————————————————————————————————
VIR:
◎ Source:
Dracula.2020.S01.iNTERNAL.1080p.WEB.X264.AAC-AMRAP.mp4
◎ After coding:
Dracula.2020.S01.SloSubs.1080p.WEB.x264.AC3-[cyd].mkv
——————————————————————————————————————————————————————————————————
Doctor.Sleep.2019.SloSub.1080p.WEB.x264-[cyd]

Klikni za povečavo!
21-01-2020 21:35 naložil Reaper
Sejalci: 3 / Odjemalci: 0 / Velikost: 2.91 GB / Dokončani: 11
Prenesi torrent Poročaj torrent Opis torrenta NFO
Kategorija: FILMI > WEBRip-1080

——————————————————————————————————————————————————————————————————
IMDb info:
◎ Naslov: Doktor Sleep - Doctor Sleep
◎ Leto: 2019
◎ Zvrst: domišljijski, drama, grozljivka
◎ Jezik: angleški
◎ Ocena: 7,3
◎ Povzetek: Stephen King je leta 2013 svetu predstavil roman Doctor Sleep in razložil, da se gre za nadaljevanje kultne zgodbe The Shining (Izžarevanje), katero je zaznamoval Jack Nicholson v istoimenskem filmu Stanleya Kubricka leta 1980. Doktor Sleep (deček Danny Torrance iz Izžarevanja) je v nadaljevanju v svojih štiridesetih letih in se bori z enakimi demoni, kot se je boril njegov oče - z nasiljem in alkoholizmom. Še vedno travmatiziran od dogodkov, ki so se zgodili v njegovem otroštvu, Torrence kmalu začne uporabljati svoj dar za komunikacijo z umirajočimi v lokalnem društvu hospic. Njegova zgodba doživi velik preobrat, ko spozna mlado dekle Abro, s katero hitro vzpostavi nadnaravno povezavo, saj se izkaže, da ima tudi sama podobne moči, kot jih ima sam. Danny jo poskuša zaščititi bred kultom imenovanim "The True Knot", katerega člani prežijo nad otroci s posebnimi sposobnostmi, da bi postali nesmrtni. Vlogo Doktor Sleepa bo zavzel Ewan McGregor, poleg njega pa bomo v filmu spremljali Rebbecco Ferguson (Rose the Hat), Kyliegh Curran (Abra), Cliffa Curtisa, Emily Alyn Lind, Zahna McClarnona in mnoge druge. Režiser filma je Mike Flanagan, ki je po knjigi Stephena Kinga napisal tudi scenarij.
———————————————————————————————————————————————————————————
YouTube URADNI NAPOVEDNIK:
——————————————————————————————————————————————————————————————————
PODNAPISI:
◎ Prevedla Nives Košir, uredil metalcamp, tehnična obdelava metalcamp (DRSI)
◎ Jezik : slovenski [vstavljeni / softcoded / multiplexed]
——————————————————————————————————————————————————————————————————
VIR:
◎ Source:
Doctor.Sleep.2019.1080p.WEBRip.x264-RARBG.mp4
◎ After coding:
Doctor.Sleep.2019.SloSub.1080p.WEB.x264-[cyd].mkv
————————————————————————————————————————————————————-——————
POVEZAVA:
◎ Seedbox NO Speed Limit
—————————————————————————————————————————————-—————————————
Disturbing.the.Peace.2020.SrbSub.1080p.WEB.x264-[cyd]

Klikni za povečavo!
17-01-2020 20:27 naložil Reaper
Sejalci: 6 / Odjemalci: 0 / Velikost: 1.73 GB / Dokončani: 28
Prenesi torrent Poročaj torrent Opis torrenta NFO
Zvrst: Akcija
Kategorija: FILMI > WEBRip-1080

——————————————————————————————————————————————————————————————————
IMDb info:
◎ Naslov: Disturbing the Peace
◎ Leto: 2020
◎ Zvrst: akcija
◎ Jezik: angleški
◎ Ocena: 4,00
◎ Povzetek: A small-town marshal who hasn't carried a gun since he left the Texas Rangers after a tragic shooting, must pick up his gun again to do battle with a gang of outlaw bikers that has invaded the town to pull off a brazen and violent heist.
———————————————————————————————————————————————————————————
YouTube URADNI NAPOVEDNIK:
——————————————————————————————————————————————————————————————————
PODNAPISI:
◎ Jezik : srbski latinica [vstavljeni / softcoded / multiplexed]
——————————————————————————————————————————————————————————————————
VIR:
◎ Source:
Disturbing.the.Peace.2020.1080p.WEBRip.x264-RARBG.mp4
◎ After coding:
Disturbing.the.Peace.2020.SrbSub.1080p.WEB.x264-[cyd].mkv
————————————————————————————————————————————————————-——————
POVEZAVA:
◎ Seedbox NO Speed Limit
—————————————————————————————————————————————-—————————————
Dracula.2020.S01.SrbSub.1080p.WEB.x264.AAC-[cyd]

Klikni za povečavo!
15-01-2020 19:53 naložil Reaper
Sejalci: 3 / Odjemalci: 0 / Velikost: 8.07 GB / Dokončani: 10
Prenesi torrent Poročaj torrent Opis torrenta NFO
Zvrst: Drama | Grozljivka
Kategorija: FILMI > WEBRip-1080

——————————————————————————————————————————————————————————————————
IMDb info:
◎ Naslov: Dracula
◎ Leto: 2019
◎ Sezona: 1
◎ Epizode:
◎ Zvrst: grozljivka, drama
◎ Jezik: angleški
◎ Ocena: 6,9
◎ Igrajo:
Claes Bang, Dolly Wells, Morfydd Clark
◎ Povzetek: In 1897 Transylvania, the blood-drinking Count draws his plans against Victorian London.
———————————————————————————————————————————————————————————
YouTube URADNI NAPOVEDNIK:
——————————————————————————————————————————————————————————————————
PODNAPISI:
◎ Jezik : srbski latinica [vstavljeni / softcoded / multiplexed]
——————————————————————————————————————————————————————————————————
VIR:
◎ Source:
Dracula.2020.S01.iNTERNAL.1080p.WEB.X264-AMRAP.mp4
◎ After coding:
Dracula.2020.S01.SrbSub.1080p.WEB.x264.AAC-[cyd].mkv
——————————————————————————————————————————————————————————————————
Djordje Balašević - Kolekcija (1977-2017) [MuSi]

Klikni za povečavo!
13-01-2020 17:43 naložil Torrente
Sejalci: 0 / Odjemalci: 0 / Velikost: 6.07 GB / Dokončani: 3
Prenesi torrent Poročaj torrent Opis torrenta
Kategorija: GLASBA > Glasba

Djordje Balasevic - Kolekcija (1977-2017) [MuSi]

Artist.............: Dorđe Balašević
Album..............: Kolekcija
Year...............: 1977-2017
Source.............: WEB
Music Format.......: MP3
Codec..............: LAME 3.98
Version............: MPEG 1 Layer III
Quality............: Insane, (avg. bitrate: 320kbps)
Channels...........: Joint Stereo / 44100 hz
Rani Mraz - Mojoj mami, umesto maturske slike u izlogu (1979)
Rani Mraz - Odlazi cirkus (1980)
Pub (1982)
Celovečernji The Kid (1983)
003 (1985)
Bezdan (1986)
U tvojim molitvama - Balade uživo (1987) 2xCD
Panta Rei… (1988)
Tri posleratna druga (1989)
Marim ja (1991)
Jedan od onih života (1993)
Naposletku… (1996)
Novogodišnji koncert- Samo za D–molere (1997) 2xCD
Dal je sve bilo samo fol? (1997)
Devedesete (2000)
Dnevnik starog momka (2001)
Ostaće okrugli trag na mestu šatre (2002) 2xCD
Rani Mraz (2004)
Mater vetru (2005)
Panonski mornar (2006)
Žetva - U razdeljak te ljubim (1977)
Rani Mraz - Ljubio sam snašu na salašu (1978)
Rani Mraz - Oprosti mi, Katrin (1978)
Rani Mraz - Računajte na nas (1978)
Rani Mraz - Kristifore crni sine (1978)
Rani Mraz - Prvi januar popodne (1979)
Rani Mraz - Panonski mornar (1979)
Priča o Vasi Ladačkom (1980)
Marina (1980)
Rani Mraz - Tri put sam video Tita (1981)
Hej čarobnjaci, svi su vam đaci (1982)
Pesma o jednom petlu (1983)
Slovenska (1985)
Sve je otišlo u Honduras (1986)
Samo rata da ne bude (1987)
Poluuspavanka (1987)
Ljubav ne pobedjuje (2012)
Najveći hitovi (1986)
Najveći hitovi Đorđa Balaševića (1991)
The Best Of Vol. 2 1987 - 1992 (1993)
The Best Of... Vol. 1 (1994)
The Best Of.. Vol. 2 (1994)
The Best Of (1998)
Putuj Evropo (The Best of vol. 3) (1999)
Balade (2000)
Đorđe Balašević & Rani Mraz - Single Collection ('77-'87.) (2000)
Portret 1 (2000)
Portret 2 (2000)
Antologija (2005)
The Platinum Collection (2010)
The Best Of Collection (2013)
Bonus
Neki noviji klinci i... - Obrade Đoleta Balaševića (2007)
Najbolje pjesme (2010)
Osmeh se vratio u grad (2017)
Das Leben der Anderen / The Lives of Others (2006) + Srb prevod

Klikni za povečavo!
10-01-2020 17:05 naložil Torrente
Sejalci: 3 / Odjemalci: 0 / Velikost: 796.29 MB / Dokončani: 6
Prenesi torrent Poročaj torrent Opis torrenta
Zvrst: Drama | Triler
Kategorija: FILMI > BRRip

Das Leben der Anderen / The Lives of Others (2006) + Srb prevod



In 1984 East Berlin, an agent of the secret police, conducting surveillance on a writer and his lover, finds himself becoming increasingly absorbed by their lives.

Poznati nemački film "Život drugih" izvrsna je psihološka drama s elementima špijunskog filma. Reč je o filmu koji je 2006. osvojio, uz mnoštvo ostalih, i nagradu Oscar za najbolji strani film, i postigao neverojatnu gledanost u Nemačkoj.

Ovo debitantsko ostvarenje nemačkog režisera Floriana Henckel von Donnersmarcka smešteno je u 1984. godinu.
Kapetan Gerd Wiesler (Ulrich Muehe) je agent istočnonemačke tajne policije. Wiesler pažljivo i potajno istražuje živote ljudi koji na neki način predstavljaju opasnost za državu. Nedugo pošto ga bivši školski kolega, poručnik Anton Grubitz (Ulrich Tukur) pozove da pogledaju pozorišnu predstavu proslavljenog dramskog pisca Georga Dreymana (Sebastian Koch), ministar Bruno Hempf (Thomas Thieme) obavesti Wieslera kako misli da je Dreymana i dalje disident. Kako se ispostavi, Hempf ima skriveni motiv zbog kojeg želi da okrivi Dreymana: on je ludo zaljubljen u Christa-Maria Sieland (Martina Gedeck), Dreymanovu devojku. Grubitz, koji želi unapređenje, imenuje Wieslera kao špijuna koji će mu pomoći u istrazi.

Wiesler postavlja uređaje za prisluškivanje u Dreymanov stan i počinje pratiti pisca. Dok Wiesler pomno prati Dreymanov dnevni život (iz tajne prostorije za nadzor koja se nalazi na tavanu), on otkriva da je pisac jedan od retkih stanovnika Istočne Nemačke koji zaista veruje svojim liderima. Ipak, ovaj zaključak će se s vremenom promeniti jer Dreyman saznaje da se Christa-Maria zbog ucene upustila u vezu sa Hempfom , a Dreymanov prijatelj, režiser Albert Jerska (Volkmar Kleinert) doveden je do samoubistva jer je na crnoj listi vlade. U tom trenutku prestaje Dreymanova lojalnost i on jednim dnevnim novinama šalje anonimno pismo usmereno protiv istočnonemačke vlasti, koje će razbesneti vladine službenike. U međuvremenu, Wiesler biva emotivno uvučen u živote čuvenog pisca i njegove devojke...
Das letzte Schweigen / The Silence (2010) + Srb prevod

Klikni za povečavo!
10-01-2020 16:57 naložil Torrente
Sejalci: 3 / Odjemalci: 0 / Velikost: 1.31 GB / Dokončani: 7
Prenesi torrent Poročaj torrent Opis torrenta
Zvrst: Drama | Kriminalka | Triler
Kategorija: FILMI > BRRip

Das letzte Schweigen / The Silence (2010) + Srb prevod



13-year-old Sinikka vanishes on a hot summer night. Her bicycle is found in the exact place where a girl was killed 23 years ago. The dramatic present forces those involved in the original case to face their past.

13-godisnja Sinikka nestaje jedne letnje noci. Njena bicikla je pronadjena na istom mestu gde je jedna devojka ubijena, 23 godine ranije. Lica koja su bila ukljucena u istragu, moraju ponovo da se suoce sa prosloscu.
Department Q: Journal 64 / The Purity Of Vengeance (2018) + Srb prevod

Klikni za povečavo!
09-01-2020 12:11 naložil Torrente
Sejalci: 0 / Odjemalci: 1 / Velikost: 1016.73 MB / Dokončani: 7
Prenesi torrent Poročaj torrent Opis torrenta
Zvrst: Kriminalka | Triler
Kategorija: FILMI > BRRip

Department Q: Journal 64 / The Purity Of Vengeance (2018) + Srb prevod



A series of mysterious disappearances in 2006 are eerily connected to the same institution.

Dva radnika pronalaze tri mumificirana trupla u starom stanu u Kopenhagenu. Oni sjede oko stola, a četvrto mjesto je prazno. Carl Mørck i njegov pomoćnik Assad preuzimaju slučaj te pokušavaju saznati tko su mumificirane osobe i za koga je bilo namijenjeno četvrto sjedalo...
Department Q: Flaskepost fra P / A Conspiracy of Faith (2016) + Srb prevod

Klikni za povečavo!
09-01-2020 12:07 naložil Torrente
Sejalci: 0 / Odjemalci: 1 / Velikost: 858.75 MB / Dokončani: 7
Prenesi torrent Poročaj torrent Opis torrenta
Zvrst: Kriminalka | Triler
Kategorija: FILMI > BRRip

Department Q: Flaskepost fra P / A Conspiracy of Faith (2016) + Srb prevod



Two intertwined cases linking the past with the present will require the aid of Department Q to catch an elusive serial killer, while time is running out.

Treći film iz serije nastalih prema knjigama danskog pisca krimića Jussi Adler-Olsena u čijem su središtu stručnjaci za 'hladne slučajeve' iz Odjela Q, detektivi Carl Mørck (Nikolaj Lie Kass) i Assad (Fares Fares). Priča filma vrti se oko dva slučaja. Prvi u središtu ima slučaj nestalih osoba, mladog brata i sestre koji su iznenada nestali, a drugi se bavi osam godina starom porukom u boci - poziv u pomoć otetog dječaka - koja je pronašla put od Škotske do Odjela Q. Istraga koju vode Carl i Assad pronaći će vezu između ovih dvaju naoko nepovezanih slučaja. Kako će kopati dublje, tako će se uplesti u stravičan slučaj - vjerski fanatizam, psihopatskog ubojicu, kao i nekoliko otetih braće i sestara čiji nestanak roditelji nikada nisu prijavili.
Department Q: Fasandræberne / The Absent One (2014) + Srb prevod

Klikni za povečavo!
09-01-2020 12:04 naložil Torrente
Sejalci: 0 / Odjemalci: 0 / Velikost: 1.19 GB / Dokončani: 7
Prenesi torrent Poročaj torrent Opis torrenta
Zvrst: Kriminalka | Triler
Kategorija: FILMI > BRRip

Department Q: Fasandræberne / The Absent One (2014) + Srb prevod



The murder of young twins initially implicates a group of upper class students as the killers, though the case takes a turn or two from its starting point.

Detektivi Carls Morck i Assad istrazuju brutalno ubistvo dve bliznakinje koje se dogodilo pre punih 20 g. u jednom letnjem odmaralistu, a za koje je svojedobno bila osumnjicena grupa studenata iz obliznjeg fakulteta. Slucaj je bio zatvoren kada je za ubistvo optuzen lokalni autsajder. Ali kada se slucaj nadje na stolu detektiva Morcka i Assada, njih dvojica shvate da nesto opasno ne stima sa tim slucajem, i tako zapocne njihova istraga. Ali Morcka i Assad nisu jedini koji ce pokusati pronaci tu devojku, vec ce joj se na tragu naci i neki uticajni ljudi sa politickog vrha koje bi njena izjava mogla unistiti i koji ju zele ucutkati.
Department Q :Kvinden i buret / The Keeper of Lost Causes (2013) + Srb prevod

Klikni za povečavo!
09-01-2020 12:00 naložil Torrente
Sejalci: 0 / Odjemalci: 1 / Velikost: 921.87 MB / Dokončani: 9
Prenesi torrent Poročaj torrent Opis torrenta
Zvrst: Kriminalka | Triler
Kategorija: FILMI > BRRip

Department Q :Kvinden i buret / The Keeper of Lost Causes (2013) + Srb prevod



Police inspector Carl Mørck is put in charge of a department of cold cases, joined only by his assistant, Assad. They dig into a case about a disappeared woman.

Žena u kavezu je priča o glavnom inspektoru Carlu Morcku i njegovom asistentu Assadu koji su zaposleni na zastarjelim-zaboravljenim slučajevima. Ovaj put radi se o pet godina starom slučaju misterioznog nestanka političarke Merete Lynggaard- slučaj koji ih odvodi duboko u naislno i bolesno podzemlje naizgled uštirkane i ispolirane skandinavske svakodnevice.
Diarios de motocicleta / The Motorcycle Diaries (2004) + Srb prevod

Klikni za povečavo!
05-01-2020 16:44 naložil Torrente
Sejalci: 0 / Odjemalci: 0 / Velikost: 745.28 MB / Dokončani: 3
Prenesi torrent Poročaj torrent Opis torrenta
Kategorija: FILMI > BRRip

Diarios de motocicleta / The Motorcycle Diaries (2004) + Srb prevod



The dramatization of a motorcycle road trip Che Guevara went on in his youth that showed him his life's calling.

Ovo je zaista jedna impresivna priča koja oslikava prihvatanje sopstvene sudbine, i razumevanje i saosećanje sa okolinom koja nas neposredno okružuje. Ovo je tema koja svedoči da je ravnopravnost između ljudi zbilja minijaturna, i nastoji da nam razbije tu iluziju “pravednog” sveta kroz jedan kvalitetno napisani scenario, koji veoma suptilno i postepeno razvija svoje društvene i političke kritike. Dosta iz samog scenarija je zasnovano na dnevnicima ovih momaka, i pomoću toga i fantastične režije dobijamo komplekse i vrlo bogate likove, koji će nam svojim plemenitim delima svakako prouzrokovati jaku reakciju.

Ovaj projekat iako sadrži hipnotične i prelepe pejzaže mnogo se više centrira na samom značaju ovog putovanja, na sazrevanju naših junaka i formiranju generalne brige za onima kojima je pomoć neophodna. Ovaj film za razliku od većine projekata koje sadrže pečat Čea, ne pokušava da ga pokaža kao vojnog heroja, već pokuašva da oslika njegovo sazrevanje i beskompromisnu borbu protiv nejednakosti i siromaštva pod kojim je Južna Amerika.

Posebno treba pohvaliti glavnog aktera Gaela Garisiju Bernala (Gael_Garia_Bernal), koji svojim stavom, očima, duhom u potpunosti oslikava Ernesta, davajući jednu maestralnu predstavu sa fantastičnim momentima promene i sazrevanja. O ovom projektu ne treba previše drviti, ovo je jednostavno prelep film koji zaslužuje pažnju i obožavanje.
Dom zly / The Dark House (2009) + Srb prevod

Klikni za povečavo!
05-01-2020 15:49 naložil Torrente
Sejalci: 0 / Odjemalci: 0 / Velikost: 1.36 GB / Dokončani: 3
Prenesi torrent Poročaj torrent Opis torrenta
Zvrst: Drama | Kriminalka | Triler
Kategorija: FILMI > DVDRip

Dom zly / The Dark House (2009) + Srb prevod



The story takes place in two parallel time planes. The first plot follows the events of one autumn night in 1978. Edward Srodon, a zootechnician, makes an accidental stopover in a farmhouse of Dziabas family in the remote area of Bieszczady Mountains. He stays for the night. The initial distrust between the guest and his hosts is quickly dispelled with moonshine and turns into a camaraderie, intimacy and even friendship. A plan of making a joint business arises, as well as passion and lust, which lead to a surprising and tragic consequences... Second plot is set on a winter day, during the Martial Law in Poland. An investigating team of Milicja Obywatelska (People's Militia) is visiting the crime scene. Lieutenant Mroz is trying to solve the multiple murder case from four years ago. The tool he has to his disposal is the reconstruction of events with help of the chief suspect, Srodon.

Kuća mraka je psiho-patološka drama sa eksplicitnim scenama nasilja čija je radnja smeštena u Poljskoj za vreme hladnog rata.Lik koga pratimo od početka filma zove se Edvard Šrodon star 44 godine, po zanimanju veterinarski tehničar. Nakon iznenadne smrti žene i doživljenog šoka, koji leči utapanjem u neograničene količine vodke, rasprodaje sve što ima u stanu, uzima osiguranje pokojne supruge, pakuje kofer i odlazi u mesto Lutoviska da radi na državnoj farmi.Autobus kojim putuje kvari se na par kilometara od farme i on kreće pešaka. Jaka kiša i mrak ga primoravaju da svrati u jednu kuću kroz čiji prozor vidi ženu koja se gola zapire iznad lavora. Pas ga ujeda za nogu i on utrčava u kuću i biva previjen. Tu je i njen muž koji je upravo bio da postavi zamku za lisicu da ne bi više krala živinu.Pratimo naizmenično dve priče, jedna se dešava te večeri 1978. godine kada Edvard dolazi u kuću a druga, par godina kasnije kada policija vrši rekunstrukciju tragičnih događaja koji su se desili na tom imanju.Jad i beda tadašnjeg poljskog društva najbolje su oslikani kroz karakter moralno posrnulog stanovništva koje je za par čašica vodke i nekoliko cigareta na komad spremno da iznese sve skrivene stvari u vezi određenih malverzacija i zločina koji se dešavaju u tom poljskom okrugu. Visoko korumpirana policija čiji načelnici rade po partijskoj direktivi, funkcioneri koji su umešani u državne malverzacije šećerom kao oskudnom namirnicom, nerešena ubistva koja se prikrivaju zbog nečijeg interesa i vode kao nesrećni slučajevi, vodka koja se ilegalno pravi od graška sa dodatkom limuna, siromaštvo, utapanje u tu istu vodku u svakoj drugoj sceni samo su elementi koji prate tok filma i doprinose njegovoj celokupnoj atmosferi.Dom zly je realan, surov, iritantan, na trenutke jako težak ali svakako film koji treba pogledati.
Death.Fighter.2017.SrbSub.1080p.WEB.x264-[cyd]

Klikni za povečavo!
03-01-2020 16:20 naložil Reaper
Sejalci: 4 / Odjemalci: 0 / Velikost: 1.68 GB / Dokončani: 14
Prenesi torrent Poročaj torrent Opis torrenta NFO
Zvrst: Akcija
Kategorija: FILMI > WEBRip-1080

——————————————————————————————————————————————————————————————————
IMDb info:
◎ Naslov: Death Fighter
◎ Leto: 2017
◎ Zvrst: akcija
◎ Jezik: angleški
◎ Ocena: 5,1
◎ Povzetek: When an American cop witnesses his mentor's murder in a trade deal gone wrong, he finds himself on the wrong side of the law in Thailand. But despite the bounty on his head and pressure to leave the country, he teams up with an ex-military mercenary out to settle a score of his own to bring the killers to justice. Their quest for vengeance brings them face-to-face with a band of notorious ...
———————————————————————————————————————————————————————————
YouTube URADNI NAPOVEDNIK:
——————————————————————————————————————————————————————————————————
PODNAPISI:
◎ Jezik : srbski latinica [vstavljeni / softcoded / multiplexed]
——————————————————————————————————————————————————————————————————
VIR:
◎ Source:
Death.Fighter.2017.1080p.WEBRip.x264-RARBG.mp4
◎ After coding:
Death.Fighter.2017.SrbSub.1080p.WEB.x264-[cyd].mkv
————————————————————————————————————————————————————-——————
POVEZAVA:
◎ Seedbox NO Speed Limit
—————————————————————————————————————————————-—————————————
DJ VIHAR & DJ AJDA - BOZICNI MIX 2019

Klikni za povečavo!
19-12-2019 12:49 naložil Ajda
Sejalci: 4 / Odjemalci: 0 / Velikost: 145.9 MB / Dokončani: 21
Prenesi torrent Poročaj torrent Opis torrenta NFO
Kategorija: GLASBA > Glasba




-------------------------------------------------------------------------------
Avdio podatki
-------------------------------------------------------------------------------
Complete name : DJ VIHAR & DJ AJDA - BOŽIČNI MIX 2019
Format : MPEG Audio
File size : 144 MiB
Duration : 1h 3mn
Overall bit rate mode : Constant
Overall bit rate : 320 Kbps
Encoded by : Lavf52.39.0
Writing library : LAME3.98

Audio
Format : MPEG Audio
Format version : Version 1
Format profile : Layer 3
Mode : Joint stereo
Duration : 1h 3mn
Bit rate mode : Constant
Bit rate : 320 Kbps
Channel(s) : 2 channels
Sampling rate : 48.0 KHz
Compression mode : Lossy
Stream size : 144 MiB (100%)
Writing library : LAME3.98


01. Petar Grašo - Fritula
02. Mladi korenjaki - ČAS BOŽIČA
03. Božični zborček - Božični čas
04. NEJC KASTELIC IN ZBORČEK - BOŽIČ JE, KAR VIDIŠ V NJEM
05. Turbo Angels - Na božično noč
06. Dominik Novinc - Ponoć Je
07. Ivan Zak - Puno je želja
08. Učiteljice - GDJE JE DOM
09. TS Prijatelji feat. Minea - Božić je pred vratima
10. JASMIN STAVROS - Sretan božič ljubavi
11. Opća Opasnost - Raduj se cijeli svijete
12. POSKOČNI & NUŠA DERENDA - BELI OBLAKI, BELE SNEŽINKE
13. Skupina Primorci - Sneg v Portorožu
14. S.O.S. kvintet - BOŽIČNI ČAS
15. ŽIGA JELAR - PRIJATELJI
16. Tri mušketira - Na Božić mislim ja
17. NAVEZA & MAJA ODERLAP - NAJLEPŠE PRAZNIČNE
18. Saša Lendero - Zima je, Božič za vse



Domino.2005.SloSub.DVDRip.XviD-Churchill

Klikni za povečavo!
07-12-2019 13:39 naložil System
Sejalci: 1 / Odjemalci: 0 / Velikost: 1.65 GB / Dokončani: 13
Prenesi torrent Poročaj torrent Opis torrenta
Kategorija: FILMI > XviD
Anonimen nalagalec

Domino (2005)



INFO:
-------------
Codec : XVID
Format : AVI
Size : 1.65 GiB
Bit rate : 1 472 kb/s
Width : 720 pixels
Height : 304 pixels
Aspect ratio : 16/9
Audio 1 : AC-3
Bit rate : 448 kb/s
Channel(s) : 6 channels
Channel positions: L R C LFE Ls Rs
Sampling rate : 48.0 kHz
Genre : Action, Biography, Crime, Drama, Thriller
Country : France/ USA/ UK
Language : English
Subtitles : Slovenski
Runtime : 122 min
Čas predvajanja : 2 h 2 min

IMDb user Rating: 5,9/10 (63.048)
IMDb Link: KLIK

IGRALCI:
-------------
Keira Knightley ... Domino Harvey
Mickey Rourke ... Ed Moseby
Edgar Ramírez ... Choco
Delroy Lindo ... Claremont Williams
Mo'Nique ... Lateesha Rodriguez
Mena Suvari ... Kimmie
Macy Gray ... Lashandra Davis
Jacqueline Bisset ... Sophie Wynn
Dabney Coleman ... Drake Bishop
Brian Austin Green ... Brian Austin Green
Ian Ziering ... Ian Ziering
Stanley Kamel ... Anthony Cigliutti
Peter Jacobson ... Burke Beckett
T.K. Carter ... Lester Kincaid
Kel O'Neill ... Frances

OPIS:
-------------
Domino je ameriški akcijski film iz leta 2005, ki ga je režiral Tony Scott,
scenarij zanj pa je napisal Richard Kelly. Film je navdihnila zgodba
Domino Harvey, hčere angleškega gledališkega in televizijskega igralca
Laurencea Harveyja, ki je postala lovka na glave v Los Angelesu.

Hčerka angleškega komika Laurenca Harweyja je uspešno manekensko kariero
pustila ob strani in postala ženska različica lovca na glave. V zloglasnih
predmestjih Los Angelesa je plačana morilka kmalu postala strah in trepet
preprodajalcev droge - vse dokler ni tudi sama podlegla skušnjavi. Le malo
pred premiero filma, posnetega po njenem življenju, je umrla zaradi prevelikega
odmerka drog.