A
B
C
D
E
F
G
H
I
J
K
L
M
N
O
P
Q
R
S
T
U
V
W
X
Y
Z
0-9
DJ VIHAR & DJ AJDA - SLO & HR MIX 58

Klikni za povečavo!
26-02-2020 18:28 naložil Ajda
Sejalci: 2 / Odjemalci: 0 / Velikost: 187.7 MB / Dokončani: 32
Prenesi torrent Poročaj torrent Opis torrenta NFO
Kategorija: GLASBA > Glasba





~ DJ VIHAR & DJ AJDA - SLO & HR MIX 58 ~
*******************************************************************************

-------------------------------------------------------------------------------
Avdio podatki
-------------------------------------------------------------------------------
Complete name : DJ VIHAR & DJ AJDA - SLO & HR MIX 58
Format : MPEG Audio
File size : 187 MiB
Duration : 1h 21mn
Overall bit rate mode : Constant
Overall bit rate : 320 Kbps
Encoded by : Lavf52.39.0
Writing library : LAME3.98

Audio
Format : MPEG Audio
Format version : Version 1
Format profile : Layer 3
Mode : Joint stereo
Duration : 1h 21mn
Bit rate mode : Constant
Bit rate : 320 Kbps
Channel(s) : 2 channels
Sampling rate : 48.0 KHz
Compression mode : Lossy
Stream size : 187 MiB (100%)
Writing library : LAME3.98

-------------------------------------------------------------------------------
Vsebina
-------------------------------------------------------------------------------
01. ZLATKO DOBRIČ - Luda noč
02. MALIGANI - Tisoču milja
03. DAVOR BORNO - Živote moj
04. ZORAN CILENŠEK - Evo mene opet
05. BEČO & COMPANY - Sretno živjeti
06. ZLATKO PEJAKOVIČ - Od ljubavi prave gineš
07. THE DEKLE - Od Donava do Jadrana
08. POSKOČNI NUŠA DERENDA - Beli oblaki bele snežinke
09. MARIO SEPP - Mjesečina i gitara
10. CALYPSO in URBAN VIDMAR - Le rezerva
11. BORIS ROGOZNICA - Sve grehe piši na mene
12. MATEVŽ VISOČNIK DŽO MARAĆIĆ MAKI - Zelena kuča
13. MATEVŽ VISOČNIK NINA MARSEL - Duet življenja
14. SANDI CENOV - Dođe mi
15. KOKTELSI - Nočna igračka
16. VANJA KUŠTRIN - Naj vino greje me
17. ELIZABETA NOVAK - Ne sprašuj
18. TARAPANA - Momačka
19. BEST - Anđeli
20. TIHY - Dođi bliže
21. WERNER - Kada voli srce južnjačko
22. MATEJA - Lažem
23. NINA DONELLI - Mili



Dont.Go.2018.SrbSub.720p.BluRay.x264.AAC-[cyd]

Klikni za povečavo!
17-02-2020 21:01 naložil
Sejalci: 1 / Odjemalci: 0 / Velikost: 2.12 GB / Dokončani: 10
Prenesi torrent Magnet Link Poročaj torrent Opis torrenta NFO
Zvrst: Skrivnosten
Kategorija:

——————————————————————————————————————————————————————————————————
IMDb info:
◎ Naslov: Don't Go
◎ Leto: 2018
◎ Zvrst: skrivnosten
◎ Jezik: angleški
◎ Ocena: 5,2
◎ Povzetek: Devastated by his daughter's death in a terrible accident, Ben becomes convinced that he can bring her back through a recurring dream. But is it just a dream? Or is Ben losing his mind?
———————————————————————————————————————————————————————————
YouTube URADNI NAPOVEDNIK:
——————————————————————————————————————————————————————————————————
PODNAPISI:
◎ Prevod : adm1r
◎ Jezik : srbski latinica [vstavljeni / softcoded / multiplexed]
——————————————————————————————————————————————————————————————————
VIR:
◎ Source:
Dont Go 2018 LIMITED 720p BRRip XviD AC3 Unknown.avi
◎ After coding:
Dont.Go.2018.SrbSub.720p.BRRip.x264-[cyd].mkv
————————————————————————————————————————————————————-——————
POVEZAVA:
◎ Seedbox NO Speed Limit
—————————————————————————————————————————————-—————————————
Dolittle.2020.SrbSub.1080p.HDRip.x264-[cyd]

Klikni za povečavo!
11-02-2020 06:59 naložil
Sejalci: 3 / Odjemalci: 0 / Velikost: 3.61 GB / Dokončani: 27
Prenesi torrent Poročaj torrent Opis torrenta NFO
Zvrst: Akcija | Pustolovski | Z.F.
Kategorija: FILMI > HDRip

——————————————————————————————————————————————————————————————————
IMDb info:
◎ Naslov: Dolittle
◎ Leto: 2020
◎ Zvrst: akcija, pustolovski, komedija
◎ Jezik: angleški
◎ Ocena: 5,6
◎ Povzetek: A physician who can talk to animals embarks on an adventure to find a legendary island with a young apprentice and a crew of strange pets.
———————————————————————————————————————————————————————————
YouTube URADNI NAPOVEDNIK:
——————————————————————————————————————————————————————————————————
PODNAPISI:
◎ Prevod : SiČa
◎ Jezik : srbski latinica [vstavljeni / softcoded / multiplexed]
——————————————————————————————————————————————————————————————————
VIR:
◎ Source:
Dolittle.2020.1080p.HDRip.x264.AAC2.0-STUTTERSHIT.mp4
◎ After coding:
Dolittle.2020.SrbSub.1080p.HDRip.x264-[cyd].mkv
————————————————————————————————————————————————————-——————
POVEZAVA:
◎ Seedbox NO Speed Limit
—————————————————————————————————————————————-—————————————
Dragonheart.Vengeance.2020.SrbSub.1080p.BluRay.x264.AAC-[cyd]

Klikni za povečavo!
05-02-2020 20:40 naložil
Sejalci: 1 / Odjemalci: 0 / Velikost: 1.85 GB / Dokončani: 21
Prenesi torrent Magnet Link Poročaj torrent Opis torrenta NFO
Zvrst:
Kategorija: FILMI > BluRay-1080

——————————————————————————————————————————————————————————————————
IMDb info:
◎ Naslov: Dragonheart Vengeance
◎ Leto: 2020
◎ Zvrst: domišljijski
◎ Jezik: angleški
◎ Ocena: 5,2
◎ Povzetek: Lukas, a young farmer whose family is killed by savage raiders in the countryside, sets out on an epic quest for revenge, forming an unlikely trio with a majestic dragon and a swashbuckling, sword-fighting mercenary, Darius.
———————————————————————————————————————————————————————————
YouTube URADNI NAPOVEDNIK:
——————————————————————————————————————————————————————————————————
PODNAPISI:
◎ Prevod : DzonDon
◎ Jezik : srbski latinica [vstavljeni / softcoded / multiplexed]
——————————————————————————————————————————————————————————————————
VIR:
◎ Source:
Dragonheart.Vengeance.2020.1080p.BluRay.H264.AAC-RARBG.mp4
◎ After coding:
Dragonheart.Vengeance.2020.SrbSub.1080p.BluRay.x264-[cyd].mkv
————————————————————————————————————————————————————-——————
POVEZAVA:
◎ Seedbox NO Speed Limit
—————————————————————————————————————————————-—————————————
Dracula.2020.S01.SloSubs.1080p.WEB.x264.AC3-[cyd]

Klikni za povečavo!
30-01-2020 12:11 naložil
Sejalci: 1 / Odjemalci: 0 / Velikost: 5.9 GB / Dokončani: 6
Prenesi torrent Magnet Link Poročaj torrent Opis torrenta NFO
Zvrst: Drama | Grozljivka
Kategorija:

——————————————————————————————————————————————————————————————————
IMDb info:
◎ Naslov: Dracula
◎ Leto: 2019
◎ Sezona: 1
◎ Epizode:
◎ Zvrst: grozljivka, drama
◎ Jezik: angleški
◎ Ocena: 6,9
◎ Igrajo:
Claes Bang, Dolly Wells, Morfydd Clark
◎ Povzetek: In 1897 Transylvania, the blood-drinking Count draws his plans against Victorian London.
———————————————————————————————————————————————————————————
YouTube URADNI NAPOVEDNIK:
——————————————————————————————————————————————————————————————————
PODNAPISI:
◎ Prevod : Grimpy
◎ Priredba: [cyd]
◎ Jezik : slovenski latinica [vstavljeni / softcoded / multiplexed]
——————————————————————————————————————————————————————————————————
VIR:
◎ Source:
Dracula.2020.S01.iNTERNAL.1080p.WEB.X264.AAC-AMRAP.mp4
◎ After coding:
Dracula.2020.S01.SloSubs.1080p.WEB.x264.AC3-[cyd].mkv
——————————————————————————————————————————————————————————————————
Doctor.Sleep.2019.SloSub.1080p.WEB.x264-[cyd]

Klikni za povečavo!
21-01-2020 21:35 naložil
Sejalci: 1 / Odjemalci: 0 / Velikost: 2.91 GB / Dokončani: 12
Prenesi torrent Magnet Link Poročaj torrent Opis torrenta NFO
Zvrst: Drama | Grozljivka
Kategorija:

——————————————————————————————————————————————————————————————————
IMDb info:
◎ Naslov: Doktor Sleep - Doctor Sleep
◎ Leto: 2019
◎ Zvrst: domišljijski, drama, grozljivka
◎ Jezik: angleški
◎ Ocena: 7,3
◎ Povzetek: Stephen King je leta 2013 svetu predstavil roman Doctor Sleep in razložil, da se gre za nadaljevanje kultne zgodbe The Shining (Izžarevanje), katero je zaznamoval Jack Nicholson v istoimenskem filmu Stanleya Kubricka leta 1980. Doktor Sleep (deček Danny Torrance iz Izžarevanja) je v nadaljevanju v svojih štiridesetih letih in se bori z enakimi demoni, kot se je boril njegov oče - z nasiljem in alkoholizmom. Še vedno travmatiziran od dogodkov, ki so se zgodili v njegovem otroštvu, Torrence kmalu začne uporabljati svoj dar za komunikacijo z umirajočimi v lokalnem društvu hospic. Njegova zgodba doživi velik preobrat, ko spozna mlado dekle Abro, s katero hitro vzpostavi nadnaravno povezavo, saj se izkaže, da ima tudi sama podobne moči, kot jih ima sam. Danny jo poskuša zaščititi bred kultom imenovanim "The True Knot", katerega člani prežijo nad otroci s posebnimi sposobnostmi, da bi postali nesmrtni. Vlogo Doktor Sleepa bo zavzel Ewan McGregor, poleg njega pa bomo v filmu spremljali Rebbecco Ferguson (Rose the Hat), Kyliegh Curran (Abra), Cliffa Curtisa, Emily Alyn Lind, Zahna McClarnona in mnoge druge. Režiser filma je Mike Flanagan, ki je po knjigi Stephena Kinga napisal tudi scenarij.
———————————————————————————————————————————————————————————
YouTube URADNI NAPOVEDNIK:
——————————————————————————————————————————————————————————————————
PODNAPISI:
◎ Prevedla Nives Košir, uredil metalcamp, tehnična obdelava metalcamp (DRSI)
◎ Jezik : slovenski [vstavljeni / softcoded / multiplexed]
——————————————————————————————————————————————————————————————————
VIR:
◎ Source:
Doctor.Sleep.2019.1080p.WEBRip.x264-RARBG.mp4
◎ After coding:
Doctor.Sleep.2019.SloSub.1080p.WEB.x264-[cyd].mkv
————————————————————————————————————————————————————-——————
POVEZAVA:
◎ Seedbox NO Speed Limit
—————————————————————————————————————————————-—————————————
Dora.and.the.Lost.City.of.Gold.2019.SloSub.1080p.BluRay.x264-[cyd]

Klikni za povečavo!
20-01-2020 14:01 naložil
Sejalci: 1 / Odjemalci: 0 / Velikost: 1.95 GB / Dokončani: 56
Prenesi torrent Magnet Link Poročaj torrent Opis torrenta NFO
Kategorija: FILMI > BluRay-1080

——————————————————————————————————————————————————————————————————
IMDb info:
◎ Naslov: Raziskovalka Dora - Dora and the Lost City of Gold (original title)
◎ Leto: 2019
◎ Zvrst: pustolovski, družinski
◎ Jezik: angleški
◎ Ocena: 6,00
◎ Povzetek: Potem ko je Dora (Isabela Moner) večino svojega življenja s starši raziskovala džunglo, je nič ne more pripraviti na najnevarnejšo pustolovščino - srednjo šolo. Ker je bila vedno raziskovalka, se med raziskovanjem hitro znajde in vodi svojo prijateljico opico po imenu Škorenjc, bratranca Diega (Jeff Wahlberg), skrivnostnega prebivalca džungle (Eugenio Derbez) in skupino najstnikov na pravo avanturo, v kateri bo rešila svoja starša (Eva Longoria in Michael Pe?a) ter raziskovala nemogočo skrivnost o izgubljenem mestu zlata.
Vir: kolosej.si
———————————————————————————————————————————————————————————
YouTube URADNI NAPOVEDNIK:
——————————————————————————————————————————————————————————————————
PODNAPISI:
◎ Jezik : slovenski [vstavljeni / softcoded / multiplexed]
——————————————————————————————————————————————————————————————————
VIR:
◎ Source:
Dora.and.the.Lost.City.of.Gold.2019.PROPER.1080p.BluRay.H264.AAC-RARBG.mp4
◎ After coding:
Dora.and.the.Lost.City.of.Gold.2019.SloSub.1080p.BluRay.x264-[cyd].mkv
————————————————————————————————————————————————————-——————
POVEZAVA:
◎ Seedbox NO Speed Limit
—————————————————————————————————————————————-—————————————
Disturbing.the.Peace.2020.SrbSub.1080p.WEB.x264-[cyd]

Klikni za povečavo!
17-01-2020 20:27 naložil
Sejalci: 1 / Odjemalci: 0 / Velikost: 1.73 GB / Dokončani: 53
Prenesi torrent Magnet Link Poročaj torrent Opis torrenta NFO
Zvrst: Akcija
Kategorija:

——————————————————————————————————————————————————————————————————
IMDb info:
◎ Naslov: Disturbing the Peace
◎ Leto: 2020
◎ Zvrst: akcija
◎ Jezik: angleški
◎ Ocena: 4,00
◎ Povzetek: A small-town marshal who hasn't carried a gun since he left the Texas Rangers after a tragic shooting, must pick up his gun again to do battle with a gang of outlaw bikers that has invaded the town to pull off a brazen and violent heist.
———————————————————————————————————————————————————————————
YouTube URADNI NAPOVEDNIK:
——————————————————————————————————————————————————————————————————
PODNAPISI:
◎ Jezik : srbski latinica [vstavljeni / softcoded / multiplexed]
——————————————————————————————————————————————————————————————————
VIR:
◎ Source:
Disturbing.the.Peace.2020.1080p.WEBRip.x264-RARBG.mp4
◎ After coding:
Disturbing.the.Peace.2020.SrbSub.1080p.WEB.x264-[cyd].mkv
————————————————————————————————————————————————————-——————
POVEZAVA:
◎ Seedbox NO Speed Limit
—————————————————————————————————————————————-—————————————
Djordje Balašević - Kolekcija (1977-2017) [MuSi]

Klikni za povečavo!
13-01-2020 17:43 naložil
Sejalci: 0 / Odjemalci: 0 / Velikost: 6.07 GB / Dokončani: 3
Prenesi torrent Poročaj torrent Opis torrenta
Kategorija: GLASBA > Glasba

Djordje Balasevic - Kolekcija (1977-2017) [MuSi]

Artist.............: Dorđe Balašević
Album..............: Kolekcija
Year...............: 1977-2017
Source.............: WEB
Music Format.......: MP3
Codec..............: LAME 3.98
Version............: MPEG 1 Layer III
Quality............: Insane, (avg. bitrate: 320kbps)
Channels...........: Joint Stereo / 44100 hz
Rani Mraz - Mojoj mami, umesto maturske slike u izlogu (1979)
Rani Mraz - Odlazi cirkus (1980)
Pub (1982)
Celovečernji The Kid (1983)
003 (1985)
Bezdan (1986)
U tvojim molitvama - Balade uživo (1987) 2xCD
Panta Rei… (1988)
Tri posleratna druga (1989)
Marim ja (1991)
Jedan od onih života (1993)
Naposletku… (1996)
Novogodišnji koncert- Samo za D–molere (1997) 2xCD
Dal je sve bilo samo fol? (1997)
Devedesete (2000)
Dnevnik starog momka (2001)
Ostaće okrugli trag na mestu šatre (2002) 2xCD
Rani Mraz (2004)
Mater vetru (2005)
Panonski mornar (2006)
Žetva - U razdeljak te ljubim (1977)
Rani Mraz - Ljubio sam snašu na salašu (1978)
Rani Mraz - Oprosti mi, Katrin (1978)
Rani Mraz - Računajte na nas (1978)
Rani Mraz - Kristifore crni sine (1978)
Rani Mraz - Prvi januar popodne (1979)
Rani Mraz - Panonski mornar (1979)
Priča o Vasi Ladačkom (1980)
Marina (1980)
Rani Mraz - Tri put sam video Tita (1981)
Hej čarobnjaci, svi su vam đaci (1982)
Pesma o jednom petlu (1983)
Slovenska (1985)
Sve je otišlo u Honduras (1986)
Samo rata da ne bude (1987)
Poluuspavanka (1987)
Ljubav ne pobedjuje (2012)
Najveći hitovi (1986)
Najveći hitovi Đorđa Balaševića (1991)
The Best Of Vol. 2 1987 - 1992 (1993)
The Best Of... Vol. 1 (1994)
The Best Of.. Vol. 2 (1994)
The Best Of (1998)
Putuj Evropo (The Best of vol. 3) (1999)
Balade (2000)
Đorđe Balašević & Rani Mraz - Single Collection ('77-'87.) (2000)
Portret 1 (2000)
Portret 2 (2000)
Antologija (2005)
The Platinum Collection (2010)
The Best Of Collection (2013)
Bonus
Neki noviji klinci i... - Obrade Đoleta Balaševića (2007)
Najbolje pjesme (2010)
Osmeh se vratio u grad (2017)
Death.Fighter.2017.SrbSub.1080p.WEB.x264-[cyd]

Klikni za povečavo!
03-01-2020 16:20 naložil
Sejalci: 1 / Odjemalci: 0 / Velikost: 1.68 GB / Dokončani: 17
Prenesi torrent Magnet Link Poročaj torrent Opis torrenta NFO
Zvrst: Akcija
Kategorija:

——————————————————————————————————————————————————————————————————
IMDb info:
◎ Naslov: Death Fighter
◎ Leto: 2017
◎ Zvrst: akcija
◎ Jezik: angleški
◎ Ocena: 5,1
◎ Povzetek: When an American cop witnesses his mentor's murder in a trade deal gone wrong, he finds himself on the wrong side of the law in Thailand. But despite the bounty on his head and pressure to leave the country, he teams up with an ex-military mercenary out to settle a score of his own to bring the killers to justice. Their quest for vengeance brings them face-to-face with a band of notorious ...
———————————————————————————————————————————————————————————
YouTube URADNI NAPOVEDNIK:
——————————————————————————————————————————————————————————————————
PODNAPISI:
◎ Jezik : srbski latinica [vstavljeni / softcoded / multiplexed]
——————————————————————————————————————————————————————————————————
VIR:
◎ Source:
Death.Fighter.2017.1080p.WEBRip.x264-RARBG.mp4
◎ After coding:
Death.Fighter.2017.SrbSub.1080p.WEB.x264-[cyd].mkv
————————————————————————————————————————————————————-——————
POVEZAVA:
◎ Seedbox NO Speed Limit
—————————————————————————————————————————————-—————————————
Dead.in.a.Week.2018.SloSub.1080p.BluRay.x264-[cyd]

Klikni za povečavo!
20-12-2019 14:10 naložil
Sejalci: 1 / Odjemalci: 0 / Velikost: 1.44 GB / Dokončani: 10
Prenesi torrent Magnet Link Poročaj torrent Opis torrenta NFO
Zvrst: Akcija | Drama | Komedija
Kategorija: FILMI > BluRay-1080

——————————————————————————————————————————————————————————————————
IMDb info:
◎ Naslov: Dead in a Week (Or Your Money Back)
◎ Leto: 2019
◎ Zvrst: akcija, drama, komedija
◎ Jezik: angleški
◎ Ocena: 6,2
◎ Povzetek: After his ninth unsuccessful attempt on his own life, a young man outsources his suicide to an ageing assassin. "If you're serious about ending it, you need professional help"
———————————————————————————————————————————————————————————
YouTube URADNI NAPOVEDNIK:
——————————————————————————————————————————————————————————————————
PODNAPISI:
◎ Jezik : slovenski [vstavljeni / softcoded / multiplexed]
——————————————————————————————————————————————————————————————————
VIR:
◎ Source:
Dead.In.A.Week.Or.Your.Money.Back.2018.1080p.BluRay.x264-[YTS.AM].mp4
◎ After coding:
Dead.in.a.Week.2018.SloSub.1080p.BluRay.x264-[cyd].mkv
————————————————————————————————————————————————————-——————
POVEZAVA:
◎ Seedbox NO Speed Limit
—————————————————————————————————————————————-—————————————
DJ VIHAR & DJ AJDA - BOZICNI MIX 2019

Klikni za povečavo!
19-12-2019 12:49 naložil Ajda
Sejalci: 1 / Odjemalci: 0 / Velikost: 145.9 MB / Dokončani: 23
Prenesi torrent Poročaj torrent Opis torrenta NFO
Kategorija: GLASBA > Glasba




-------------------------------------------------------------------------------
Avdio podatki
-------------------------------------------------------------------------------
Complete name : DJ VIHAR & DJ AJDA - BOŽIČNI MIX 2019
Format : MPEG Audio
File size : 144 MiB
Duration : 1h 3mn
Overall bit rate mode : Constant
Overall bit rate : 320 Kbps
Encoded by : Lavf52.39.0
Writing library : LAME3.98

Audio
Format : MPEG Audio
Format version : Version 1
Format profile : Layer 3
Mode : Joint stereo
Duration : 1h 3mn
Bit rate mode : Constant
Bit rate : 320 Kbps
Channel(s) : 2 channels
Sampling rate : 48.0 KHz
Compression mode : Lossy
Stream size : 144 MiB (100%)
Writing library : LAME3.98


01. Petar Grašo - Fritula
02. Mladi korenjaki - ČAS BOŽIČA
03. Božični zborček - Božični čas
04. NEJC KASTELIC IN ZBORČEK - BOŽIČ JE, KAR VIDIŠ V NJEM
05. Turbo Angels - Na božično noč
06. Dominik Novinc - Ponoć Je
07. Ivan Zak - Puno je želja
08. Učiteljice - GDJE JE DOM
09. TS Prijatelji feat. Minea - Božić je pred vratima
10. JASMIN STAVROS - Sretan božič ljubavi
11. Opća Opasnost - Raduj se cijeli svijete
12. POSKOČNI & NUŠA DERENDA - BELI OBLAKI, BELE SNEŽINKE
13. Skupina Primorci - Sneg v Portorožu
14. S.O.S. kvintet - BOŽIČNI ČAS
15. ŽIGA JELAR - PRIJATELJI
16. Tri mušketira - Na Božić mislim ja
17. NAVEZA & MAJA ODERLAP - NAJLEPŠE PRAZNIČNE
18. Saša Lendero - Zima je, Božič za vse



Danger.Close.2019.SrbSub.1080p.WEB.x264-[cyd]

Klikni za povečavo!
14-12-2019 21:21 naložil
Sejalci: 1 / Odjemalci: 0 / Velikost: 2.25 GB / Dokončani: 78
Prenesi torrent Magnet Link Poročaj torrent Opis torrenta NFO
Zvrst: Akcija | Drama | Vojni
Kategorija: FILMI > BluRay-1080

——————————————————————————————————————————————————————————————————
IMDb info:
◎ Naslov: Danger Close
◎ Leto: 2019
◎ Zvrst: akcija, drama, vojni
◎ Jezik: angleški
◎ Ocena: 7,00
◎ Povzetek: In August 1966, in a Vietnamese rubber plantation called Long Tan, 108 young and inexperienced Australian and New Zealand soldiers are fighting for their lives against 2500 North Vietnamese and Viet Cong soldiers.
———————————————————————————————————————————————————————————
YouTube URADNI NAPOVEDNIK:
——————————————————————————————————————————————————————————————————
PODNAPISI:
◎ Jezik : srbski latinica [vstavljeni / softcoded / multiplexed]
——————————————————————————————————————————————————————————————————
VIR:
◎ Source:
Danger.Close.2019.1080p.BluRay.H264.AAC-RARBG.mp4
◎ After coding:
Danger.Close.2019.SrbSub.1080p.BluRay.x264-[cyd].mkv
————————————————————————————————————————————————————-——————
POVEZAVA:
◎ Seedbox NO Speed Limit
—————————————————————————————————————————————-—————————————
Dont.Let.Go.2019.SrbSub.1080p.BluRay.x264-[cyd]

Klikni za povečavo!
09-12-2019 14:04 naložil
Sejalci: 1 / Odjemalci: 0 / Velikost: 1.97 GB / Dokončani: 9
Prenesi torrent Magnet Link Poročaj torrent Opis torrenta NFO
Kategorija: FILMI > BluRay-1080

——————————————————————————————————————————————————————————————————
IMDb info:
◎ Naslov: Don't Let Go
◎ Leto: 2019
◎ Zvrst: grozljivka, drama, skrivnosten
◎ Jezik: angleški
◎ Ocena: 6,00
◎ Povzetek: After a man's family dies in what appears to be a murder, he gets a phone call from one of the dead, his niece. He's not sure if she's a ghost or if he's going mad, but as it turns out, he's not.
———————————————————————————————————————————————————————————
YouTube URADNI NAPOVEDNIK:
——————————————————————————————————————————————————————————————————
PODNAPISI:
◎ Jezik : srbski latinica [vstavljeni / softcoded / multiplexed]
——————————————————————————————————————————————————————————————————
VIR:
◎ Source:
Dont.Let.Go.2019.1080p.BluRay.H264.AAC-RARBG.mp4
◎ After coding:
Dont.Let.Go.2019.SrbSub.1080p.BluRay.x264-[cyd].mkv
————————————————————————————————————————————————————-——————
POVEZAVA:
◎ Seedbox NO Speed Limit
—————————————————————————————————————————————-—————————————
Domino.2005.SloSub.DVDRip.XviD-Churchill

Klikni za povečavo!
07-12-2019 13:39 naložil System
Sejalci: 1 / Odjemalci: 0 / Velikost: 1.65 GB / Dokončani: 14
Prenesi torrent Poročaj torrent Opis torrenta
Kategorija: FILMI > XviD
Anonimen nalagalec

Domino (2005)



INFO:
-------------
Codec : XVID
Format : AVI
Size : 1.65 GiB
Bit rate : 1 472 kb/s
Width : 720 pixels
Height : 304 pixels
Aspect ratio : 16/9
Audio 1 : AC-3
Bit rate : 448 kb/s
Channel(s) : 6 channels
Channel positions: L R C LFE Ls Rs
Sampling rate : 48.0 kHz
Genre : Action, Biography, Crime, Drama, Thriller
Country : France/ USA/ UK
Language : English
Subtitles : Slovenski
Runtime : 122 min
Čas predvajanja : 2 h 2 min

IMDb user Rating: 5,9/10 (63.048)
IMDb Link: KLIK

IGRALCI:
-------------
Keira Knightley ... Domino Harvey
Mickey Rourke ... Ed Moseby
Edgar Ramírez ... Choco
Delroy Lindo ... Claremont Williams
Mo'Nique ... Lateesha Rodriguez
Mena Suvari ... Kimmie
Macy Gray ... Lashandra Davis
Jacqueline Bisset ... Sophie Wynn
Dabney Coleman ... Drake Bishop
Brian Austin Green ... Brian Austin Green
Ian Ziering ... Ian Ziering
Stanley Kamel ... Anthony Cigliutti
Peter Jacobson ... Burke Beckett
T.K. Carter ... Lester Kincaid
Kel O'Neill ... Frances

OPIS:
-------------
Domino je ameriški akcijski film iz leta 2005, ki ga je režiral Tony Scott,
scenarij zanj pa je napisal Richard Kelly. Film je navdihnila zgodba
Domino Harvey, hčere angleškega gledališkega in televizijskega igralca
Laurencea Harveyja, ki je postala lovka na glave v Los Angelesu.

Hčerka angleškega komika Laurenca Harweyja je uspešno manekensko kariero
pustila ob strani in postala ženska različica lovca na glave. V zloglasnih
predmestjih Los Angelesa je plačana morilka kmalu postala strah in trepet
preprodajalcev droge - vse dokler ni tudi sama podlegla skušnjavi. Le malo
pred premiero filma, posnetega po njenem življenju, je umrla zaradi prevelikega
odmerka drog.

Daniel.Isnt.Real.2019.SrbSub.1080p.WEB.x264-[cyd]

Klikni za povečavo!
04-12-2019 19:27 naložil
Sejalci: 1 / Odjemalci: 0 / Velikost: 1.91 GB / Dokončani: 9
Prenesi torrent Magnet Link Poročaj torrent Opis torrenta NFO
Zvrst: Triler
Kategorija:

——————————————————————————————————————————————————————————————————
IMDb info:
◎ Naslov: Daniel Isn't Real
◎ Leto: 2019
◎ Zvrst: triler
◎ Jezik: angleški
◎ Ocena: 6,2
◎ Povzetek: A troubled college freshman, Luke, suffers a violent family trauma and resurrects his childhood imaginary friend Daniel to help him cope.
———————————————————————————————————————————————————————————
YouTube URADNI NAPOVEDNIK:
——————————————————————————————————————————————————————————————————
PODNAPISI:
◎ Jezik : srbski latinica [vstavljeni / softcoded / multiplexed]
——————————————————————————————————————————————————————————————————
VIR:
◎ Source:
Daniel.Isnt.Real.2019.1080p.WEBRip.x264-RARBG.mp4
◎ After coding:
Daniel.Isnt.Real.2019.SrbSub.1080p.WEB.x264-[cyd].mkv
——————————————————————————————————————————————————————————————————
Drunk.Parents.2019.SloSub.1080p.BluRay.x264-[cyd]

Klikni za povečavo!
18-11-2019 20:59 naložil
Sejalci: 1 / Odjemalci: 0 / Velikost: 1.86 GB / Dokončani: 68
Prenesi torrent Magnet Link Poročaj torrent Opis torrenta NFO
Zvrst: Komedija
Kategorija: FILMI > BluRay-1080

——————————————————————————————————————————————————————————————————
IMDb info:
◎ Naslov: Drunk Parents
◎ Leto: 2019
◎ Zvrst: komedija
◎ Jezik: angleški
◎ Ocena: 4,00
◎ Povzetek: Two drunk parents attempt to hide their ever increasing financial difficulties from their daughter and social circle through elaborate neighborhood schemes.
———————————————————————————————————————————————————————————
YouTube URADNI NAPOVEDNIK:
——————————————————————————————————————————————————————————————————
PODNAPISI:
◎ Jezik : slovenski [vstavljeni / softcoded / multiplexed]
——————————————————————————————————————————————————————————————————
VIR:
◎ Source:
Drunk.Parents.2019.1080p.BluRay.H264.AAC-RARBG.mp4
◎ After coding:
Drunk.Parents.2019.SloSub.1080p.BluRay.x264-[cyd].mkv
——————————————————————————————————————————————————————————————————
Driven.2018.1080p.SrbSub.BluRay.x264.AAC-[cyd]

Klikni za povečavo!
06-10-2019 09:53 naložil System
Sejalci: 1 / Odjemalci: 0 / Velikost: 2.16 GB / Dokončani: 6
Prenesi torrent Magnet Link Poročaj torrent Opis torrenta NFO
Zvrst: Biografija | Drama | Triler
Kategorija: FILMI > BluRay-1080
Anonimen nalagalec

———————————————————————————————————————————————————————————
IMDb info:
◎ Naslov: Driven
◎ Leto: 2018
◎ Zvrst: biografski drama triler
◎ Jezik: angleški
◎ Ocena: ★★★★★★ (6,2)
◎ Stars: Erin Moriarty, Lee Pace, Judy Greer
◎ Povzetek: Intense thriller where politics, big business and narcotics collide.
———————————————————————————————————————————————————————————
YouTube URADNI NAPOVEDNIK:
———————————————————————————————————————————————————————————
PODNAPISI:
◎ Jezik : srbski latinica [vstavljeni / softcoded / multiplexed]
———————————————————————————————————————————————————————————
VIR:
◎ Source:
Driven.2018.1080p.BluRay.H264.AAC-RARBG.mp4
◎ After coding:
Driven.2018.1080p.SrbSub.BluRay.x264.AAC-[cyd].mkv
———————————————————————————————————————————————————————————
Damsel.2018.SrbSub.1080p.BluRay.H264.AAC-[cyd]

Klikni za povečavo!
29-09-2019 19:39 naložil System
Sejalci: 1 / Odjemalci: 0 / Velikost: 2.17 GB / Dokončani: 92
Prenesi torrent Magnet Link Poročaj torrent Opis torrenta NFO
Kategorija: FILMI > BluRay-1080
Anonimen nalagalec

———————————————————————————————————————————————————————————
IMDb info:
◎ Naslov: Damsel
◎ Leto: 2018
◎ Zvrst: pustolovski komedija kriminalka
◎ Jezik: angleški
◎ Ocena: ★★★★★★ (5,6)
◎ Povzetek: It's the Wild West, circa 1870. Samuel Alabaster, an affluent pioneer, ventures across the American frontier to marry the love of his life, Penelope. As his group traverses the west, the once-simple journey grows treacherous, blurring the lines between hero, villain and damsel.
———————————————————————————————————————————————————————————
YouTube URADNI NAPOVEDNIK:
———————————————————————————————————————————————————————————
PODNAPISI:
◎ Jezik : srbski latinica [vstavljeni / softcoded / multiplexed]
———————————————————————————————————————————————————————————
VIR:
◎ Source:
Damsel.2018.1080p.BluRay.H264.AAC-RARBG.mp4
◎ After coding:
Damsel.2018.SrbSub.1080p.BluRay.x264.AAC-[cyd].mkv
———————————————————————————————————————————————————————————
DJ VIHAR & DJ AJDA - SLO & HR MIX 57

Klikni za povečavo!
14-09-2019 11:14 naložil Ajda
Sejalci: 1 / Odjemalci: 0 / Velikost: 166.94 MB / Dokončani: 47
Prenesi torrent Poročaj torrent Opis torrenta NFO
Kategorija: GLASBA > Glasba




-------------------------------------------------------------------------------
Avdio podatki
-------------------------------------------------------------------------------
Complete name : DJ VIHAR & DJ AJDA - SLO & HR MIX 57
Format : MPEG Audio
File size : 166 MiB
Duration : 1h 12mn
Overall bit rate mode : Constant
Overall bit rate : 320 Kbps
Encoded by : Lavf52.39.0
Writing library : LAME3.98

Audio
Format : MPEG Audio
Format version : Version 1
Format profile : Layer 3
Mode : Joint stereo
Duration : 1h 12mn
Bit rate mode : Constant
Bit rate : 320 Kbps
Channel(s) : 2 channels
Sampling rate : 48.0 KHz
Compression mode : Lossy
Stream size : 166 MiB (100%)
Writing library : LAME3.98


01. SKUPINA ZAKA PA NE - Atmosfera
02. ŽELJKO BEBEK - 100 sam dana pio
03. ZVITA FELTNA - Zate
04. JOLE - Godišnjica
05. DANIJEL POPOVIČ - Hej lane moje
06. CECILIJA - Mangup
07. VIGOR /Feat ISSAC PALMA - Šatori
08. KLAPA PUNTAMIKA - Noč punog meseca
09. SAŠA LENDERO / DOMEN KUMER - 100%
10. ALYA -Sedam dana na moru
11. ARRIVA - Moje petke
12 . IVICA ŠEPERIČ / JASMIN STAVROS - Pravi dalmatinac
13. IVANA KOVAČ - Ti
14. DEJAN VUNJAK - Čist majčken
15. MEJAŠI - Ja još mogu
16. THE FRAJLE - Nočas si moje vino
17. MARKO ŠKUGOR - Kako te jubim ja
18. ZVITA FELTNA - Gin in tonic
19. DAVID RICOV - Adio pape, adio mama
20. NON STOP / JASMIN STAVROS - Tutta forza
21. DOMEN KUMER - Prva runda


DJ VIHAR & DJ AJDA - SLO & HR MIX 56

Klikni za povečavo!
09-09-2019 18:22 naložil System
Sejalci: 1 / Odjemalci: 0 / Velikost: 167.41 MB / Dokončani: 42
Prenesi torrent Poročaj torrent Opis torrenta NFO
Kategorija: GLASBA > Glasba
Anonimen nalagalec





-------------------------------------------------------------------------------
Avdio podatki
-------------------------------------------------------------------------------
DJ VIHAR & DJ AJDA - SLO & HR MIX 56
Format : MPEG Audio
File size : 167 MiB
Duration : 1h 12mn
Overall bit rate mode : Constant
Overall bit rate : 320 Kbps
Encoded by : Lavf52.39.0
Writing library : LAME3.98

Audio
Format : MPEG Audio
Format version : Version 1
Format profile : Layer 3
Mode : Joint stereo
Duration : 1h 12mn
Bit rate mode : Constant
Bit rate : 320 Kbps
Channel(s) : 2 channels
Sampling rate : 48.0 KHz
Compression mode : Lossy
Stream size : 167 MiB (100%)
Writing library : LAME3.98

VSEBINA:

01. IVANA KOVAČ - Za mene
02. JASMIN STAVROS/PIŠTEK/NAVIHANKE - Angel in hudič
03. NEDA UKRADEN - Najteže je kad se rastaje
04. SKUPINA CALYPSO - Mala barka
05. ŠARMERI - Usne boje vina
06. ALEN VOGRINEC VESEL - Prijatelju moj
07. JASMIN STAVROS - Na planini
08. MEJAŠI - Blago nama
09. KUMOVI - Rajna
10. NATAŠA MADJAR - Pa si mi rekel
11. TEQUILA - Vanilija
12. DOMEN KUMER - Najboljše vino
13. LUKA BASI / MARKO ŠKUGOR - Ružo bila
14. MARK ZEBRA - Marina
15. LJUBAVNICI - Jedna jedina
16. MARIO ROSO - Kaplja vina
17. NINA DONELI / TARAPANA BAND - Genijalno
18. DRAŽEN ZEČIČ - Sve je zbog nje
19. DANIJELA MARTINOVIČ - Kao prekjučer
20. MATE BULIČ / TARAPANA BAND - Ja sam nate ponosan
21. KVARTOPIRCI - Ti si zame čokolada



Dark.Phoenix.2019.SrbSub.1080p.BluRay.x264.AAC-[cyd]

Klikni za povečavo!
30-08-2019 15:59 naložil
Sejalci: 1 / Odjemalci: 0 / Velikost: 2.17 GB / Dokončani: 39
Prenesi torrent Magnet Link Poročaj torrent Opis torrenta NFO
Zvrst: Akcija | Pustolovski | Z.F.
Kategorija: FILMI > BluRay-1080

———————————————————————————————————————————————————————————
IMDb info:
◎ Naslov: Možje X: Temni Feniks (Dark Phoenix)
◎ Leto: 2019
◎ Zvrst: akcija pustolovski ZF
◎ Jezik: angleški
◎ Ocena: ★★★★★★ (6,0)
◎ Stars:
◎ Povzetek: Jean Gray začne razvijati neverjetne moči, ki jo pokvarijo in spremnijo v Temnega Feniksa. Zdaj se morajo Možje X odločiti, ali je življenje člana njihove ekipe vredno več, kot življenja ostalih ljudi na svetu.
———————————————————————————————————————————————————————————
YouTube URADNI NAPOVEDNIK:
———————————————————————————————————————————————————————————
PODNAPISI:
◎ Jezik : srbski latinica [vstavljeni / softcoded / multiplexed]
———————————————————————————————————————————————————————————
VIR:
◎ Source:
Dark.Phoenix.2019.1080p.BluRay.H264.AAC-RARBG.mp4
◎ After coding:
Dark.Phoenix.2019.SrbSub.1080p.BluRay.x264.AAC-[cyd].mkv
———————————————————————————————————————————————————————————
Destination.Wedding.2018.SloSub.1080p.BluRay.x264.AAC-[cyd]

Klikni za povečavo!
13-08-2019 20:16 naložil System
Sejalci: 1 / Odjemalci: 0 / Velikost: 1.65 GB / Dokončani: 23
Prenesi torrent Magnet Link Poročaj torrent Opis torrenta NFO
Kategorija: FILMI > BluRay-1080
Anonimen nalagalec

———————————————————————————————————————————————————————————
IMDb info:
◎ Naslov: Destination Wedding
◎ Leto: 2018
◎ Zvrst: komedija drama romanca
◎ Jezik: angleški
◎ Ocena: ★★★★★★ (6,0)
◎ Stars:
◎ Povzetek: The story of two miserable and unpleasant wedding guests, Lindsay and Frank, who develop a mutual affection despite themselves.
———————————————————————————————————————————————————————————
YouTube URADNI NAPOVEDNIK:
———————————————————————————————————————————————————————————
PODNAPISI:
◎ Jezik : slovenski [vstavljeni / softcoded / multiplexed]
———————————————————————————————————————————————————————————
VIR:
◎ Source:
Destination.Wedding.2018.1080p.BluRay.H264.AAC-RARBG.mp4
◎ After coding:
Destination.Wedding.2018.SloSub.1080p.BluRay.x264.AAC-[cyd].mkv
———————————————————————————————————————————————————————————
Despicable.Me.3.2017.SLOSubs.BRRip.XviD-DrSi

Klikni za povečavo!
11-08-2019 00:04 naložil NERON
Sejalci: 1 / Odjemalci: 0 / Velikost: 1.9 GB / Dokončani: 5
Prenesi torrent Magnet Link Poročaj torrent Opis torrenta
Kategorija:

DESPICABLE ME 3 (2017)
JAZ, BARABA 3
animirana komična pustolovščina





Naziv: Despicable.Me.3.2017.SLOSubs.BRRip.XviD-DrSi
Source:
Despicable.Me.3.2017.720p.BluRay.DTS.x264-iFT
Leto izida .........: 2017
Velikost ...........: 1,90 GB
Dolžina ............: 100 Minut
Video ...............: 2578 Kbps | 720x304 | 23,976 fps
Zvok .................: Dolby Digital AC3 5.1 @448 kbps
Kodek...............: XviD
Zvrst………….: Animirani | Akcija | Pustolovski | Komedija | Družinski | ZF
Država……….: ZDA
Jezik ................: Angleški
Podnapisi .........:
Slovenski(RETAiL)
Za HD priredil in uredil: metalcamp

Tehnična obdelava: DVD Rippers Slovenija

Režija.........: Kyle Balda, Pierre Coffin
Scenarij.......: Cinco Paul, Ken Daurio



Steve Carell ... Gru / Dru (voice)
Kristen Wiig ... Lucy (voice)
Trey Parker ... Balthazar Bratt (voice)
Miranda Cosgrove ... Margo (voice)
Dana Gaier ... Edith (voice)
Nev Scharrel ... Agnes (voice)
Pierre Coffin ... Minions / Museum Director (voice)
Steve Coogan ... Fritz / Silas Ramsbottom (voice)
Julie Andrews ... Gru's Mom (voice)
Jenny Slate ... Valerie Da Vinci (voice)



Potem ko je v prvem delu super zlobec Gru skušal ukrasti Luno, posvojil tri hčerke
in se ustalil v mirnem predmestju, v drugem delu skupaj z agentko skrivnostne
organizacije za boj proti zločincem iskal novo največjo barabo na svetu, se v
tretjem delu spopada s svojim bratom dvojčkom. Pojavil se bo namreč Grujev davno
izgubljeni brat dvojček Dru, ki bo poskrbel za pravo bratsko rivalstvo. Obenem čaka
Gruja še spopad z Balthazarjem Brattom, nekdanjim otroškim zvezdnikom, ki je postal
obseden z likom, ki ga je igral v 80. letih 20. stoletja. Za piko na i pa so tukaj
še prigode prikupnih Minionov.

NAPOVEDNIK:

















Detroit.2017.SrbSub.1080p.BluRay.x264.AAC-[cyd]

Klikni za povečavo!
09-08-2019 14:54 naložil System
Sejalci: 1 / Odjemalci: 0 / Velikost: 2.72 GB / Dokončani: 20
Prenesi torrent Magnet Link Poročaj torrent Opis torrenta NFO
Kategorija: FILMI > BluRay-1080
Anonimen nalagalec

———————————————————————————————————————————————————————————
IMDb info:
◎ Naslov:Detroit
◎ Leto: 2017
◎ Zvrst: kriminalka drama zgodovinski
◎ Jezik: angleški
◎ Ocena: ★★★★★★★ (7,3)
◎ Stars:
◎ Povzetek: Fact-based drama set during the 1967 Detroit riots in which a group of rogue police officers respond to a complaint with retribution rather than justice on their minds.
———————————————————————————————————————————————————————————
YouTube URADNI NAPOVEDNIK:
———————————————————————————————————————————————————————————
PODNAPISI:
◎ Jezik : srbski latinica [vstavljeni / softcoded / multiplexed]
———————————————————————————————————————————————————————————
VIR:
◎ Source:
Detroit.2017.1080p.BluRay.H264.AAC-RARBG.mp4
◎ After coding:
Detroit.2017.SrbSub.1080p.BluRay.x264.AAC-[cyd].mkv
———————————————————————————————————————————————————————————