All torrents are Free between 01-12-2018 - 01-01-2019
A
B
C
D
E
F
G
H
I
J
K
L
M
N
O
P
Q
R
S
T
U
V
W
X
Y
Z
0-9
xXx Return Of Xander Cage 2017 SrbSubs 720p KORSUB HDRip XviD MP3 STUTTERSHIT

Klikni za povečavo!
10-03-2017 19:15 naložil Ziva
Sejalci: 0 / Odjemalci: 0 / Velikost: 2.97 GB / Dokončani: 15
Prenesi torrent Poročaj torrent Opis torrenta NFO
Kategorija: FILMI > HDRip



xXx Return Of Xander Cage 2017 720p KORSUB HDRip XviD MP3 STUTTERSHIT
Language(s): English
1hr 46mn | 720p KORSUB HDRip | 1280 x 534 | AVI | 2.97 GB
Genre(s): Action | Adventure | Thriller
IMDb : http://www.imdb.com/title/tt1293847/


Podnapisi : srbski


Vin Diesel ... Xander Cage
Donnie Yen ... Xiang
Deepika Padukone ... Serena Unger
Kris Wu ... Nicks
Ruby Rose ... Adele Wolff
Tony Jaa ... Talon


Na veliko platno se vrača nosilec titule največjega frajerja med vladnimi agenti. Gre za mišičastega, tetoviranega ekstremnega športnika in agenta Agencije za nacionalno varnost, ki nosi kodno ime trojni X. Reaktiviran Xander Cage se bo, potem ko bo predčasno zaključil svojo prostovoljno upokojitev, spopadel z novim nevarnim nasprotnikom ter pogumno kljuboval smrti med iskanjem smrtonosne Pandorine skrinjice.




xXx Return of Xander Cage - 2017 - pDVDRip - 1CD - x264 - Makintos13

Klikni za povečavo!
18-01-2017 22:06 naložil BlackDevil
Sejalci: 0 / Odjemalci: 0 / Velikost: 698.36 MB / Dokončani: 14
Prenesi torrent Poročaj torrent Opis torrenta
Kategorija: FILMI > HDSD

2XwvW.jpg




Format : Matroska
Format version : Version 2
File size : 698 MiB
Duration : 1 h 37 min
Overall bit rate : 999 kb/s


Video
ID : 1
Format : AVC
Format/Info : Advanced Video Codec
Format profile : High@L3.1
Format settings, CABAC : Yes
Format settings, ReFrames : 4 frames
Codec ID : V_MPEG4/ISO/AVC
Duration : 1 h 37 min
Bit rate : 613 kb/s
Width : 1 280 pixels
Height : 536 pixels
Display aspect ratio : 2.35:1
Frame rate mode : Constant
Frame rate : 23.976 (24000/1001) FPS
Color space : YUV
Chroma subsampling : 4:2:0
Bit depth : 8 bits
Scan type : Progressive
Bits/(Pixel*Frame) : 0.037

Audio
ID : 2
Format : AC-3
Format/Info : Audio Coding 3
Mode extension : CM (complete main)
Format settings, Endianness : Big
Codec ID : A_AC3
Duration : 1 h 37 min
Bit rate mode : Constant
Bit rate : 384 kb/s
Channel(s) : 2 channels
Channel positions : Front: L R
Sampling rate : 44.1 kHz
Frame rate : 28.711 FPS (1536 spf)
Bit depth : 16 bits
Compression mode : Lossy
Stream size : 269 MiB (38%)
Language : Hindi
Default : Yes
Forced : No
Posted On......: www.tornado.si

MeDm5.png
CAST
Vin Diesel as Xander Cage / xXx
Donnie Yen as Xiang
Deepika Padukone as Serena Unger
Kris Wu as Harvard "Nicks" Zhou
Ruby Rose as Adele Wolff
Tony Jaa as Talon
Nina Dobrev as Rebecca "Becky" Clearidge
Samuel L. Jackson as NSA Agent Augustus Eugene Gibbons
Toni Collette as Jane Marke
Nicky Jam as Lazarus
Rory McCann as Tennyson "The Torch"
Al Sapienza as CIA Director
Michael Bisping as Hawk
Ariadna Gutiérrez as Gina Roff
Hermione Corfield as Ainsley
Tony Gonzalez as Paul Donovan

MeDm5.png
Synopsis
Ekstremni športnik in agent Agencije za nacionalno varnost Xander Cage (Vin Diesel), ki nosi kodno ime trojni X, se vrača iz predčasne upokojitve, potem ko skupina kriminalcev začne ogrožati varnost, saj so prevzeli napravo za upravljanje vseh vojaških satelitov. Xander sestavi ekipo sebi podobnim upornikom, se postavi po robu nevarnemu nasprotniku Xiangu (Donnie Yen) ter išče smrtonosno orožje znano kot Pandorina skrinjica. Reaktiviran Xander Cage se s svojo ekipo kmalu znajde v smrtonosni zaroti, ki kaže na tajni dogovor na najvišjem nivoju svetovnih vlad. Akcijski triler xXx: Reaktiviran, ki ga zaznamuje brezizrazna duhovitost in drzno obnašanje, bo postregel z ekstremnimi akcijskimi prizori in najbolj osupljivimi kaskaderskimi akcijami, kar so jih ujele filmske kamere.
MeDm5.png

OpZGX.jpg
moDG7.jpg
Xuan Zang 2016 SrbSubs 1080p BrRip x264 VPPV

Klikni za povečavo!
14-11-2016 13:23 naložil Ziva
Sejalci: 0 / Odjemalci: 0 / Velikost: 2.83 GB / Dokončani: 5
Prenesi torrent Poročaj torrent Opis torrenta NFO
Zvrst: Biografija
Kategorija: FILMI > BRRip



Xuan Zang 2016 1080p BrRip x264 VPPV
Language(s): Chinese
1hr 59mn | 1080p BrRip | 1920 x 724 | Matroska | 2.83 GB
Genre(s): Biography
IMDb : http://www.imdb.com/title/tt5684550/

Podnapisi : srbski


Xiaoming Huang ... Xuan Zang
Zheng Xu ... Li Daliang
Purba Rgyal ... Shi Pantuo
Jin Luo ... Li Chang
Kai Tan ... Wang Xiang


During the Tang Dynasty's during the era of "Zhen Guan" (era name during rule of Emperor Taizong), the young Xuan Zang monk, in his quest for the knowledge in Buddhism, embarked on a journey to India, that is fraught with perils and dangers, natural disasters, and sees the sufferings of the common people. Soldiers gets in his way, his disciples betrays him, he struggles through deserts, runs short of food and water, all in the quest for Buddha's teachings. He finally arrives in India, and studies Buddhism in earnest. By the time he returns to China, he is already 50 years old.



X.Men.Apocalypse.2016.CroSubs 1080p.HDTC.AAC.x264-ETRG

Klikni za povečavo!
19-06-2016 08:18 naložil System
Sejalci: 1 / Odjemalci: 0 / Velikost: 3.89 GB / Dokončani: 18
Prenesi torrent Poročaj torrent Opis torrenta
Kategorija: FILMI > WEBRip-1080
Anonimen nalagalec

Naziv......: X.Men.Apocalypse.2016.CroSubs 1080p.HDTC.AAC.x264-ETRG
Source....... X.Men.Apocalypse.2016. 1080p.HDTC.AAC.x264
Velikost....: 3.89 GiB
Dolžina......: 2h 23mn
Leto......: 2016
Slika......: 1 920 x 792 | 3 728 kbps | 29.970 fps
Zvok.....: Dolby Digital | AC3 | 448 Kbps
Kodek......: MP4- Advanced Video Coding
Država.....: ZDA
Jezik......: Angleški
Žanr.....: Domišlijska akcija
Podnapisi......:Hrvaški (RETAiL)
Tehnična obdelava...: RM

IMDB: http://www.imdb.com/title/tt3385516/

Ocena: 7,4/10

Režija.....: Bryan Singer

Scenarij......:Simon Kinberg,Brayn Singer,MichaelDougherty,Dan Harris.
Igrajo:James McAvoy, Michael Fassbender, Jennifer Lawrence, Oscar Isaac, Nicholas Hoult, Rose Byrne, Tye Sheridan, Sophie Turner, Olivia Munn, Lucas Till, Evan Peters, Kodi Smit-McPhee, Alexandra Shipp, Josh Helman, Lana Condor, Ben Hardy

Zgodba;
Po več tisočletjih spanca se ponovno zbudi prvi, neumrljivi in najmočnejši mutant, ki so ga od nekdaj slavili kot boga. Vsemogočni Apokalipsa je razočaran nad sodobnim svetom, zato se odloči ponovno izbrati štiri pomagače, ki mu bodo stali ob strani pri uničenju človeštva. Profesor X in Mystique poskušata s svojimi mutantskimi učenci preprečiti najhujše, toda njun večni nasprotnik Magneto se s svojimi zavezniki pridruži Apokalipsi, kar vodi v spopad epskih razsežnosti. Ko usoda človeštva visi na nitki, se morajo mutanti soočiti z lastnimi moralnimi in fizičnimi omejitvami svojih nadnaravnih moči in sposobnosti.

YouTube Napovednik;

General ;
Complete name : X.Men.Apocalypse.2016.1080p.HDTC.AAC.x264-ETRG.mp4
Format : MPEG-4
Format profile : Base Media
Codec ID : isom
File size : 3.89 GiB
Duration : 2h 23mn
Overall bit rate mode : Variable
Overall bit rate : 3 869 Kbps
Encoded date : UTC 2016-06-05 08:02:23
Tagged date : UTC 2016-06-05 08:02:23

Video
ID : 1
Format : AVC
Format/Info : Advanced Video Codec
Format profile : High@L4.0
Format settings, CABAC : Yes
Format settings, ReFrames : 4 frames
Codec ID : avc1
Codec ID/Info : Advanced Video Coding
Duration : 2h 23mn
Bit rate : 3 728 Kbps
Maximum bit rate : 18.0 Mbps
Width : 1 920 pixels
Height : 792 pixels
Display aspect ratio : 2.40:1
Frame rate mode : Constant
Frame rate : 29.970 fps
Color space : YUV
Chroma subsampling : 4:2:0
Bit depth : 8 bits
Scan type : Progressive
Bits/(Pixel*Frame) : 0.082
Stream size : 3.75 GiB (96%)
Title : ETRG
Writing library : x264 core 148 r2665 a01e339

Audio
ID : 2
Format : AAC
Format/Info : Advanced Audio Codec
Format profile : LC
Codec ID : 40
Duration : 2h 23mn
Bit rate mode : Variable
Bit rate : 136 Kbps
Maximum bit rate : 160 Kbps
Channel(s) : 2 channels
Channel positions : Front: L R
Sampling rate : 48.0 KHz
Compression mode : Lossy
Stream size : 140 MiB (4%)
Title : ETRG
Language : English
Encoded date : UTC 2016-06-04 21:54:45
Tagged date : UTC 2016-06-05 08:03:42

X-Men.Days.of.Future.Past.2014.SLOSub.720p.BluRay.x264-DrSi

Klikni za povečavo!
12-10-2014 12:04 naložil el201
Sejalci: 0 / Odjemalci: 0 / Velikost: 5.8 GB / Dokončani: 5
Prenesi torrent Poročaj torrent Opis torrenta
Zvrst: Akcija
Kategorija: FILMI > WEBRip-720

Title: X-Men: Days of Future Past
Release Title: X-Men.Days.of.Future.Past.2014.SLOSub.720p.BluRay.x264-DrSi
Tagline: To save the future, they must alter the past
Release Date: 2014-05-23
Imdb Url:
Genre: Action | Adventure | Fantasy | Science Fiction
File Size: 5.80 GiB
Duration: 2h 11mn
SubTitles: Slovenian (retail)
Overall Bitrate: 6 310 Kbps



Aspect ratio(AR): 2.40:1
Container: V_MPEG4/ISO/AVC
Frame Rate: 23.976 fps
Quality Factor(QF): 0.350
Resolution: 1280 X 528 pixels
Source: Blu-Ray
Video Bitrate: 5 668 Kbps
Video Codec Type: x264



Audio Codec: AC-3
Audio language: English
Bitrate: 640 Kbps
Bitrate Mode: Constant
Channel Count: 6 channels (Front: L C R, Side: L R, LFE)



Cast:
Hugh Jackman ... Logan / Wolverine
James McAvoy ... Professor Charles Xavier (Past)
Patrick Stewart ... Professor Charles Xavier (Future)
Michael Fassbender ... Erik Lehnsherr / Magneto (Past)
Ian McKellen ... Erik Lehnsherr / Magneto (Future)
Jennifer Lawrence ... Raven / Mystique
Nicholas Hoult ... Hank McCoy / Beast
Ellen Page ... Kitty Pryde / Shadowcat
Shawn Ashmore ... Iceman
Peter Dinklage ... Bolivar Trask
Halle Berry ... Ororo Munroe / Storm
Booboo Stewart ... James Proudstar / Warpath
Fan Bingbing ... Clarice Ferguson /
Daniel Cudmore ... Piotr Rasputin / Colossus
Adan Canto ... Roberto da Costa / Sunspot
Omar Sy ... Lucas Bishop
Evan Peters ... Pietro Maximoff / Quicksilver
Lucas Till ... Alex Summers / Havok
Josh Helman ... William Stryker
Evan Jonigkeit ... Toad
Famke Janssen ... Jean Grey
James Marsden ... Scott Summers / Cyclops
Anna Paquin ... Rogue
Mark Camacho ... President Richard Nixon
Kelsey Grammer ... Hank McCoy / Beast (Older)




Storyline:
V nadaljevanju sage o konfliktu med ljudmi in mutanti, se obe strani znajdeta pred popolnim uničenjem, ko vojska izgubi nadzor nad uničevalnimi stroji, ki naj bi pokončali mutante. Da bi preprečili popolno uničenje človeštva, Profesor X in Magneto združita moči in v preteklost pošljeta Wolverina, da bi mlade mutante usmeril na pravo pot in tako preprečil usodni konec. Toda Wolverine kmalu naleti na težave, saj mladi Profesor X ne premore zanj značilne modrosti, vročekrvni Magneto pa hrepeni zgolj po maščevanju. Kljub vsemu je Wolverine odločen, da ne bo dopustil ponovitve uničujoče prihodnosti.


X-Men.Days.of.Future.Past.2014.HD2DVD.DVDR-Bojan026

Klikni za povečavo!
22-09-2014 14:55 naložil ViHaR
Sejalci: 0 / Odjemalci: 0 / Velikost: 4.37 GB / Dokončani: 10
Prenesi torrent Poročaj torrent Opis torrenta NFO Trailer
IMDB Rating: 8.3 8.3/10 Zvrst: Akcija | Z.F.
Kategorija: FILMI > DVDRip
http://www.imdb.com/title/tt1877832/



INFO:
DVD Name.............................: X-Men.Days.of.Future.Past.2014.HD2DVD.DVDR-Bojan026
Source...............................: HD + DVD
DVD Size.............................: 4.37 GB
runtime..............................: 130 mins
region code..........................: Free
Menu.................................: Yes, edit by Bojan026
Extra................................: No
Video Info:
TV system............................: NTSC
Resolution.............................: 720x480
Aspect ratio.........................: 16:9
bitrate..............................: 4194
Frame rate...........................: 29.970
Number of subtitles..................: 3
Subtitle language/s..................: Croatian(kelopei), Serbian(Bambula), Slovenian(MaStr)
Audio Info:
Audio coding mode.......................: AC3 5.1
Bitrate.................................: (AC3 448kbps)
Number of Audio stream...........: 1
Audio stream language/s.................: English

IGRAJO:
Hugh Jackman ... Logan / Wolverine
James McAvoy ... Charles Xavier
Michael Fassbender ... Erik Lehnsherr
Jennifer Lawrence ... Raven / Mystique
Halle Berry ... Storm
Nicholas Hoult ... Hank / Beast
Anna Paquin ... Rogue
Ellen Page ... Kitty Pryde

KRATKA VSEBINA:
V nadaljevanju sage o konfliktu med ljudmi in mutanti, se obe strani znajdeta pred popolnim uničenjem, ko vojska izgubi nadzor nad uničevalnimi stroji, ki naj bi pokončali mutante. Da bi preprečili popolno uničenje človeštva, Profesor X in Magneto združita moči in v preteklost pošljeta Wolverina, da bi mlade mutante usmeril na pravo pot in tako preprečil usodni konec. Toda Wolverine kmalu naleti na težave, saj mladi Profesor X ne premore zanj značilne modrosti, vročekrvni Magneto pa hrepeni zgolj po maščevanju. Kljub vsemu je Wolverine odločen, da ne bo dopustil ponovitve uničujoče prihodnosti.
X-Men Days of Future Past 2014 SrbSubs HDCAM V2 x264 AC3 TiTAN

Klikni za povečavo!
03-06-2014 14:14 naložil Ziva
Sejalci: 0 / Odjemalci: 0 / Velikost: 1.38 GB / Dokončani: 28
Prenesi torrent Poročaj torrent Opis torrenta NFO Trailer
IMDB Rating: 8.5 8.5/10 Zvrst: Akcija | Pustolovski
Kategorija: FILMI > HDSD
http://www.imdb.com/title/tt1877832/



INFO:
X Men Days of Future Past 2014 HDCAM V2 x264 AC3 TiTAN
Jezik : English
Trajanje : 2hr 02mn | HDCAM |
Resolucija : 720 x 288 | Matroska |
Velikost : 1.37 GB
Zvrst : Action | Adventure | Fantasy
Podnapisi : srbski

IGRAJO:
Hugh Jackman ... Logan / Wolverine
James McAvoy ... Charles Xavier
Michael Fassbender ... Erik Lehnsherr
Jennifer Lawrence ... Raven / Mystique
Halle Berry ... Storm
Nicholas Hoult ... Hank / Beast

KRATKA VSEBINA:
V nadaljevanju sage o konfliktu med ljudmi in mutanti, se obe strani znajdeta pred popolnim uničenjem, ko vojska izgubi nadzor nad uničevalnimi stroji, ki naj bi pokončali mutante. Da bi preprečili popolno uničenje človeštva, Profesor X in Magneto združita moči in v preteklost pošljeta Wolverina, da bi mlade mutante usmeril na pravo pot in tako preprečil usodni konec. Toda Wolverine kmalu naleti na težave, saj mladi Profesor X ne premore zanj značilne modrosti, vročekrvni Magneto pa hrepeni zgolj po maščevanju. Kljub vsemu je Wolverine odločen, da ne bo dopustil ponovitve uničujoče prihodnosti.