DJ VIHAR & DJ AJDA - SLO & HR MIX 63

Klikni za povečavo!
08-11-2021 12:17 naložil Ajda
Sejalci: 8 / Odjemalci: 0 / Velikost: 195.33 MB / Dokončani: 27
Prenesi torrent Poročaj torrent Opis torrenta NFO
Zvrst: Glasbeni
Kategorija: GLASBA > Glasba



-------------------------------------------------------------------------------
Avdio podatki
-------------------------------------------------------------------------------
General
Complete name : DJ VIHAR & DJ AJDA - SLO & HR MIX 63.mp3
Format : MPEG Audio
File size : 195 MiB
Duration : 1h 24mn
Overall bit rate mode : Constant
Overall bit rate : 320 Kbps
Encoded by : Lavf52.39.0
Writing library : LAME3.98

Audio
Format : MPEG Audio
Format version : Version 1
Format profile : Layer 3
Mode : Joint stereo
Duration : 1h 24mn
Bit rate mode : Constant
Bit rate : 320 Kbps
Channel(s) : 2 channels
Sampling rate : 48.0 KHz
Compression mode : Lossy
Stream size : 195 MiB (100%)
Writing library : LAME3.98
-------------------------------------------------------------------------------
Vsebina
-------------------------------------------------------------------------------

DJ VIHAR & DJ AJDA - SLO & HR MIX 63

01. Davor Borno - Kad zagrmi dalmatinska
02. Klapa More - Slomila je sve u meni
03. Urban Vidmar - Noč je sladka
04. Jasmin Stavros - Umri muški
05. Čuki - Mogoče
06. Dejan Vunjak - Jutri bom k tebi odšel
07. Skater - Reševalec
08. Ivana Kovać - Idemo dalje
09. Alya - Ti z mano znaš
10. Dražen Zečič - Na staroj sam adresi
11. Jasna Zlokič - Ne traži me
12. Alka Vuica Željko Bebek - Ako odeš
13. Kumovi - Život si moj
14. Ljubavnici - Ljepa ženo dalmatinko
15. Tarapana - Da nema me
16. Učiteljice - Trava
17. Mladen Grdovič - Nije meni lako
18. Mišo Kovač - Da se dva puta vrate
19. Luka basi / Ivana Kovač - Danas
20. Maraaya - 1000 let
21. Nina Doneli / Guliano - Žali nas more
22. Mladen Grdovič - Vjeruj mi
23. Milo Hrnič - Oprosti
24. Goran Karan - Baš me briga
25. Božidar Wolf - Imela sva vse







eva, Sini, Spartakus in 7 ostalim je to všeč.
Delite na socialnem omrežju


-------------------------------------------------------------------------------
Avdio podatki
-------------------------------------------------------------------------------
General
Complete name : DJ VIHAR & DJ AJDA - SLO & HR MIX 63.mp3
Format : MPEG Audio
File size : 195 MiB
Duration : 1h 24mn
Overall bit rate mode : Constant
Overall bit rate : 320 Kbps
Encoded by : Lavf52.39.0
Writing library : LAME3.98

Audio
Format : MPEG Audio
Format version : Version 1
Format profile : Layer 3
Mode : Joint stereo
Duration : 1h 24mn
Bit rate mode : Constant
Bit rate : 320 Kbps
Channel(s) : 2 channels
Sampling rate : 48.0 KHz
Compression mode : Lossy
Stream size : 195 MiB (100%)
Writing library : LAME3.98
-------------------------------------------------------------------------------
Vsebina
-------------------------------------------------------------------------------

DJ VIHAR & DJ AJDA - SLO & HR MIX 63

01. Davor Borno - Kad zagrmi dalmatinska
02. Klapa More - Slomila je sve u meni
03. Urban Vidmar - Noč je sladka
04. Jasmin Stavros - Umri muški
05. Čuki - Mogoče
06. Dejan Vunjak - Jutri bom k tebi odšel
07. Skater - Reševalec
08. Ivana Kovać - Idemo dalje
09. Alya - Ti z mano znaš
10. Dražen Zečič - Na staroj sam adresi
11. Jasna Zlokič - Ne traži me
12. Alka Vuica Željko Bebek - Ako odeš
13. Kumovi - Život si moj
14. Ljubavnici - Ljepa ženo dalmatinko
15. Tarapana - Da nema me
16. Učiteljice - Trava
17. Mladen Grdovič - Nije meni lako
18. Mišo Kovač - Da se dva puta vrate
19. Luka basi / Ivana Kovač - Danas
20. Maraaya - 1000 let
21. Nina Doneli / Guliano - Žali nas more
22. Mladen Grdovič - Vjeruj mi
23. Milo Hrnič - Oprosti
24. Goran Karan - Baš me briga
25. Božidar Wolf - Imela sva vse







Trenutno še ni nobenega komentarja.
*******************************************************************************

                               \\\ ///

                           @/ _ _ \@

                            ( (o) (o) )

          ==oOOO==(_)====OOOo====

               ~ www.ViDEOTEKA.org ~

                    =========== Oooo.====
                                (   )
                    .oooO        ) / 
                    (   )       (_/
                     \ (          
                      \_)


*******************************************************************************
               ~ DJ VIHAR & DJ AJDA -  SLO & HR MIX 63 ~
*******************************************************************************
-------------------------------------------------------------------------------
                          Avdio  podatki
-------------------------------------------------------------------------------
General
Complete name               : DJ VIHAR & DJ AJDA -  SLO & HR MIX 63.mp3
Format                                   : MPEG Audio
File size                                : 195 MiB
Duration                                 : 1h 24mn
Overall bit rate mode                    : Constant
Overall bit rate                         : 320 Kbps
Encoded by                               : Lavf52.39.0
Writing library                          : LAME3.98

Audio
Format                                   : MPEG Audio
Format version                           : Version 1
Format profile                           : Layer 3
Mode                                     : Joint stereo
Duration                                 : 1h 24mn
Bit rate mode                            : Constant
Bit rate                                 : 320 Kbps
Channel(s)                               : 2 channels
Sampling rate                            : 48.0 KHz
Compression mode                         : Lossy
Stream size                              : 195 MiB (100%)
Writing library                          : LAME3.98
-------------------------------------------------------------------------------
                           Vsebina
-------------------------------------------------------------------------------

DJ VIHAR & DJ AJDA -  SLO & HR MIX 63

01. Davor Borno - Kad zagrmi dalmatinska
02. Klapa More - Slomila je sve u meni
03. Urban Vidmar - No## je sladka
04. Jasmin Stavros - Umri mu##ki
05. ##uki - Mogo##e
06. Dejan Vunjak - Jutri bom k tebi od##el
07. Skater - Re##evalec 
08. Ivana Kova## - Idemo dalje
09. Alya - Ti z mano zna##
10. Dra##en Ze##i## - Na staroj sam adresi
11. Jasna Zloki## - Ne tra##i me
12. Alka Vuica  ##eljko Bebek - Ako ode##
13. Kumovi - ##ivot si moj
14. Ljubavnici - Ljepa ##eno dalmatinko
15. Tarapana - Da nema me
16. U##iteljice - Trava
17. Mladen Grdovi## - Nije meni lako
18. Mi##o Kova## - Da se dva puta vrate
19. Luka basi / Ivana Kova## - Danas
20. Maraaya - 1000 let
21. Nina Doneli / Guliano - ##ali nas more
22. Mladen Grdovi## - Vjeruj mi
23. Milo Hrni## - Oprosti
24. Goran Karan - Ba## me briga
25. Bo##idar Wolf - Imela sva vse