My.Name.Is.Nobody.1973.CROSubs.1080p.BluRay.x265-RARBG

Klikni za povečavo!
22-02-2022 18:30 naložil BlackDevil
Sejalci: 1 / Odjemalci: 0 / Velikost: 1.81 GB / Dokončani: 4
Prenesi torrent Magnet Link Poročaj torrent Opis torrenta
Zvrst: Komedija | Western
Kategorija: FILMI > BluRay-1080



Video
ID : 1
Format : HEVC
Format/Info : High Efficiency Video Coding
Format profile : Main 10@L4@Main
Codec ID : hev1
Codec ID/Info : High Efficiency Video Coding
Duration : 1 h 55 min
Bit rate : 2 000 kb/s
Width : 1 920 pixels
Height : 816 pixels
Display aspect ratio : 2.35:1
Frame rate mode : Constant
Frame rate : 23.976 (24000/1001) FPS
Color space : YUV
Chroma subsampling : 4:2:0
Bit depth : 10 bits
Bits/(Pixel*Frame) : 0.053
Stream size : 1.62 GiB (90%)
Writing library : x265

Audio
ID : 2
Format : AAC LC
Format/Info : Advanced Audio Codec Low Complexity
Codec ID : mp4a-40-2
Duration : 1 h 55 min
Bit rate mode : Constant
Bit rate : 224 kb/s
Channel(s) : 2 channels
Channel layout : L R
Sampling rate : 48.0 kHz
Frame rate : 46.875 FPS

Henry Fonda > Jack Beauregard
Terence Hill > Nessuno
Alexander Allerson > Rex
R.G. Armstrong > Honest John
Mario Brega > Pedro
Karl Braun > Jim
Leo Gordon > Red
Steve Kanaly > False barber
Geoffrey Lewis > Leader of the Wild Bunch
Piero Lulli > Sheriff
Jean Martin > Sullivan
Marc Mazza > Don John (as Mark Mazza)
Rainer Peets > Big Gun (as Remus Peets)
Benito Stefanelli > Porteley
Neil Summers > Squirrel


Jack Beauregard, once the greatest gunslinger of the Old West, only wants to move to Europe and retire in peace, but a young gunfighter, known only as "Nobody," idolizes him and wants to see him go out in a blaze of glory. He arranges for Jack to face the 150-man gang known as The Wild Bunch and earn his place in history


ViHaR, eva, kekec973 in 1 ostalim je to všeč.
Tagi za tale torrent: Comedy, Western
Delite na socialnem omrežju


Video
ID : 1
Format : HEVC
Format/Info : High Efficiency Video Coding
Format profile : Main 10@L4@Main
Codec ID : hev1
Codec ID/Info : High Efficiency Video Coding
Duration : 1 h 55 min
Bit rate : 2 000 kb/s
Width : 1 920 pixels
Height : 816 pixels
Display aspect ratio : 2.35:1
Frame rate mode : Constant
Frame rate : 23.976 (24000/1001) FPS
Color space : YUV
Chroma subsampling : 4:2:0
Bit depth : 10 bits
Bits/(Pixel*Frame) : 0.053
Stream size : 1.62 GiB (90%)
Writing library : x265

Audio
ID : 2
Format : AAC LC
Format/Info : Advanced Audio Codec Low Complexity
Codec ID : mp4a-40-2
Duration : 1 h 55 min
Bit rate mode : Constant
Bit rate : 224 kb/s
Channel(s) : 2 channels
Channel layout : L R
Sampling rate : 48.0 kHz
Frame rate : 46.875 FPS

Henry Fonda > Jack Beauregard
Terence Hill > Nessuno
Alexander Allerson > Rex
R.G. Armstrong > Honest John
Mario Brega > Pedro
Karl Braun > Jim
Leo Gordon > Red
Steve Kanaly > False barber
Geoffrey Lewis > Leader of the Wild Bunch
Piero Lulli > Sheriff
Jean Martin > Sullivan
Marc Mazza > Don John (as Mark Mazza)
Rainer Peets > Big Gun (as Remus Peets)
Benito Stefanelli > Porteley
Neil Summers > Squirrel


Jack Beauregard, once the greatest gunslinger of the Old West, only wants to move to Europe and retire in peace, but a young gunfighter, known only as "Nobody," idolizes him and wants to see him go out in a blaze of glory. He arranges for Jack to face the 150-man gang known as The Wild Bunch and earn his place in history


Trenutno še ni nobenega komentarja.
Nič ni najdeno.