The Tower 2012 SLOSubs BRRip 720p x264-PRiSTiNE

Klikni za povečavo!
23-02-2022 17:11 naložil BlackDevil
Sejalci: 1 / Odjemalci: 0 / Velikost: 698.19 MB / Dokončani: 12
Prenesi torrent Poročaj torrent Opis torrenta
Kategorija: FILMI >  BRRip

CoverCity - DVD Covers & Labels - The Tower

General
Complete name : The Tower 2012 BRRip 720p x264 Korean-PRiSTiNE.mp4
Format : MPEG-4
File size : 698 MiB
Duration : 2h 1mn
Overall bit rate mode : Variable
Overall bit rate : 800 Kbps
Video
Format : AVC
Format/Info : Advanced Video Codec
Format profile : High [email protected]
Bit rate : 719 Kbps
Width : 1 280 pixels
Height : 542 pixels
Display aspect ratio : 2.35:1
Frame rate mode : Constant
Frame rate : 23.976 fps
Bit depth : 10 bits
Stream size : 626 MiB (90%)
Writing library : x264 core 130 r2273 b3065e6
Audio
Format : AAC
Bit rate mode : Variable
Bit rate : 80.0 Kbps
Channel(s) : 2 channels
Channel positions : Front: L R
Sampling rate : 48.0 KHz / 24.0 KHz
Stream size : 69.8 MiB (10%)
Language : Korean
Subtitle : SLOVENSKI
Source : 720p.BluRay.DTS.x264-EbP

IGRAJO
Sol Kyung-gu ... Captain Kang Young-ki (as Kyung-gu Sol)
Son Ye-jin ... Seo Yoon-hee
Kim Sang-kyung ... Lee Dae-ho
Kim In-kwon ... Sergeant Oh Byung-Man
Sung-Ki Ahn ... Yeouido Fire Station Chief (as Sung-kee Ahn)
Jae-ho Song ... Mr. Yoon - Old Man
Joo-sil Lee ... Mrs. Jung - Mr. Yoon's Friend (as Ju-shil Lee)
Han-wi Lee ... Mr. Kim - Church Elder
Kwon Tae-won ... Fire Commissioner Jang
Jeon Guk-hyang ... Ae-ja


VSEBINA
V pravkar odprtem arhitekturnem čudežu – dvojčku nebotičnikov, ki parata nebo nad Seulom, je vse pripravljeno na najbolj prestižno zabavo v mestu. Tik pred začetkom zabave varnostni strokovnjaki ugotovijo, da je med gradnjo prišlo do nedopustnih napak pri montaži protipožarnega sistema, zato predlagajo evakuacijo stavbe. Šef varnosti ignorira opozorila, saj ga bolj skrbi izvedba zabavnega programa, ki v sebi nosi precejšnje tveganje. Prestižne goste in okolico celega kompleksa na vrhuncu zabave dva helikopterja s pomočjo ogromnih ventilatorjev navdušita s plesom snežink. Gostje so seveda neizmerno očarani in trepljajo organizatorje, ko močan sunek vetra enega od ventilatorjev tako močno zaniha, da pilot izgubi oblast nad helikopterjem. Trči v most, ki povezuje oba stolpa. Ob nesreči se po stavbi razlije gorivo in izbruhne požar kataklizmičnih razsežnosti. V stavbi zavlada popoln kaos in brezkompromisni boj za preživetje.

Minister, apathy, rexy123 in 1 ostalim je to všeč.
Tagi za tale torrent: Drama, Action
Delite na socialnem omrežju
CoverCity - DVD Covers & Labels - The Tower

General
Complete name : The Tower 2012 BRRip 720p x264 Korean-PRiSTiNE.mp4
Format : MPEG-4
File size : 698 MiB
Duration : 2h 1mn
Overall bit rate mode : Variable
Overall bit rate : 800 Kbps
Video
Format : AVC
Format/Info : Advanced Video Codec
Format profile : High [email protected]
Bit rate : 719 Kbps
Width : 1 280 pixels
Height : 542 pixels
Display aspect ratio : 2.35:1
Frame rate mode : Constant
Frame rate : 23.976 fps
Bit depth : 10 bits
Stream size : 626 MiB (90%)
Writing library : x264 core 130 r2273 b3065e6
Audio
Format : AAC
Bit rate mode : Variable
Bit rate : 80.0 Kbps
Channel(s) : 2 channels
Channel positions : Front: L R
Sampling rate : 48.0 KHz / 24.0 KHz
Stream size : 69.8 MiB (10%)
Language : Korean
Subtitle : SLOVENSKI
Source : 720p.BluRay.DTS.x264-EbP

IGRAJO
Sol Kyung-gu ... Captain Kang Young-ki (as Kyung-gu Sol)
Son Ye-jin ... Seo Yoon-hee
Kim Sang-kyung ... Lee Dae-ho
Kim In-kwon ... Sergeant Oh Byung-Man
Sung-Ki Ahn ... Yeouido Fire Station Chief (as Sung-kee Ahn)
Jae-ho Song ... Mr. Yoon - Old Man
Joo-sil Lee ... Mrs. Jung - Mr. Yoon's Friend (as Ju-shil Lee)
Han-wi Lee ... Mr. Kim - Church Elder
Kwon Tae-won ... Fire Commissioner Jang
Jeon Guk-hyang ... Ae-ja


VSEBINA
V pravkar odprtem arhitekturnem čudežu – dvojčku nebotičnikov, ki parata nebo nad Seulom, je vse pripravljeno na najbolj prestižno zabavo v mestu. Tik pred začetkom zabave varnostni strokovnjaki ugotovijo, da je med gradnjo prišlo do nedopustnih napak pri montaži protipožarnega sistema, zato predlagajo evakuacijo stavbe. Šef varnosti ignorira opozorila, saj ga bolj skrbi izvedba zabavnega programa, ki v sebi nosi precejšnje tveganje. Prestižne goste in okolico celega kompleksa na vrhuncu zabave dva helikopterja s pomočjo ogromnih ventilatorjev navdušita s plesom snežink. Gostje so seveda neizmerno očarani in trepljajo organizatorje, ko močan sunek vetra enega od ventilatorjev tako močno zaniha, da pilot izgubi oblast nad helikopterjem. Trči v most, ki povezuje oba stolpa. Ob nesreči se po stavbi razlije gorivo in izbruhne požar kataklizmičnih razsežnosti. V stavbi zavlada popoln kaos in brezkompromisni boj za preživetje.

Odličen
BlackDevil 23-02-2022 21:01
Nič ni najdeno.