Spider-Man.No.Way.Home.2021.CROSubs.HDTS.XviD.B4ND1T69

Klikni za povečavo!
08-03-2022 11:02 naložil BlackDevil
Sejalci: 1 / Odjemalci: 0 / Velikost: 1.87 GB / Dokončani: 22
Prenesi torrent Poročaj torrent Opis torrenta
Kategorija: FILMI > HDTV

CoverCity - DVD Covers & Labels - Spider-Man: No Way Home (2021)

Director: Jon Watts
Writers: Chris McKenna, Erik Sommers, Stan Lee(based on the Marvel comic book by)
Stars: Tom Holland, Zendaya, Benedict Cumberbatch, Jacob Batalon, Jon Favreau

Plot/Story:
Peter Parker is unmasked and no longer able to separate his normal life from the high-stakes of being a super-hero. When he asks for help from Doctor Strange the stakes become even more dangerous, forcing him to discover what it truly means to be Spider-Man.

General
Complete name : Spider-Man.No.Way.Home.2021.HDTS.XviD.B4ND1T69.avi
Format : AVI
Format/Info : Audio Video Interleave
File size : 1.79 GiB
Duration : 2 h 23 min
Overall bit rate : 1 785 kb/s
Samples : Yes...Included(3)

Video
ID : 0
Format : MPEG-4 Visual
Format profile : Advanced [email protected]
Format settings, BVOP : 2
Format settings, QPel : No
Format settings, GMC : No warppoints
Format settings, Matrix : Default (H.263)
Codec ID : DIVX
Codec ID/Info : Project Mayo
Codec ID/Hint : DivX 4
Duration : 2 h 23 min
Bit rate : 1 643 kb/s
Width : 720 pixels
Height : 352 pixels
Display aspect ratio : 2.045
Frame rate : 30.000 FPS
Color space : YUV
Chroma subsampling : 4:2:0
Bit depth : 8 bits
Scan type : Progressive
Compression mode : Lossy
Bits/(Pixel*Frame) : 0.216
Stream size : 1.65 GiB (92%)
Writing library : XviD 64

Audio
ID : 1
Format : MPEG Audio
Format version : Version 1
Format profile : Layer 3
Mode : Joint stereo
Mode extension : MS Stereo
Codec ID : 55
Codec ID/Hint : MP3
Duration : 1 h 43 min
Source duration : 2 h 23 min
Bit rate mode : Constant
Bit rate : 128 kb/s
Channel(s) : 2 channels
Sampling rate : 48.0 kHz
Compression mode : Lossy
Stream size : 131 MiB (7%)
Alignment : Aligned on interleaves
Interleave, duration : 24 ms (0.72 video frame)


Willem Dafoe > Norman Osborn
Alfred Molina > Dr. Otto Octavius
Marisa Tomei > May Parker
Jamie Foxx > Electro
Jamie Foxx > Max Dillon
Jon Favreau > Happy Hogan
Paula Newsome > MIT Assistant Vice Chancellor
Martin Starr > Mr. Harrington
J.K. Simmons > J. Jonah Jameson
Benedict Wong > Wong
Benedict Cumberbatch > Doctor Strange
J.B. Smoove > Mr. Dell
Arian Moayed > Agent Cleary
Tony Revolori > Flash Thompson
Hannibal Buress > Coach Wilson
Angourie Rice > Betty Brant
Zendaya > MJ
Tom Holland > Peter Parker
Tom Holland > Spider-Man
Jacob Batalon > Ned Leeds

Screenshots:












Please Seed For As Long As Possible
Or At Least 1:1 Ratio...Thanks
Enjoy
rexy123, leskovec75, Mick in 3 ostalim je to všeč.
Delite na socialnem omrežju
CoverCity - DVD Covers & Labels - Spider-Man: No Way Home (2021)

Director: Jon Watts
Writers: Chris McKenna, Erik Sommers, Stan Lee(based on the Marvel comic book by)
Stars: Tom Holland, Zendaya, Benedict Cumberbatch, Jacob Batalon, Jon Favreau

Plot/Story:
Peter Parker is unmasked and no longer able to separate his normal life from the high-stakes of being a super-hero. When he asks for help from Doctor Strange the stakes become even more dangerous, forcing him to discover what it truly means to be Spider-Man.

General
Complete name : Spider-Man.No.Way.Home.2021.HDTS.XviD.B4ND1T69.avi
Format : AVI
Format/Info : Audio Video Interleave
File size : 1.79 GiB
Duration : 2 h 23 min
Overall bit rate : 1 785 kb/s
Samples : Yes...Included(3)

Video
ID : 0
Format : MPEG-4 Visual
Format profile : Advanced [email protected]
Format settings, BVOP : 2
Format settings, QPel : No
Format settings, GMC : No warppoints
Format settings, Matrix : Default (H.263)
Codec ID : DIVX
Codec ID/Info : Project Mayo
Codec ID/Hint : DivX 4
Duration : 2 h 23 min
Bit rate : 1 643 kb/s
Width : 720 pixels
Height : 352 pixels
Display aspect ratio : 2.045
Frame rate : 30.000 FPS
Color space : YUV
Chroma subsampling : 4:2:0
Bit depth : 8 bits
Scan type : Progressive
Compression mode : Lossy
Bits/(Pixel*Frame) : 0.216
Stream size : 1.65 GiB (92%)
Writing library : XviD 64

Audio
ID : 1
Format : MPEG Audio
Format version : Version 1
Format profile : Layer 3
Mode : Joint stereo
Mode extension : MS Stereo
Codec ID : 55
Codec ID/Hint : MP3
Duration : 1 h 43 min
Source duration : 2 h 23 min
Bit rate mode : Constant
Bit rate : 128 kb/s
Channel(s) : 2 channels
Sampling rate : 48.0 kHz
Compression mode : Lossy
Stream size : 131 MiB (7%)
Alignment : Aligned on interleaves
Interleave, duration : 24 ms (0.72 video frame)


Willem Dafoe > Norman Osborn
Alfred Molina > Dr. Otto Octavius
Marisa Tomei > May Parker
Jamie Foxx > Electro
Jamie Foxx > Max Dillon
Jon Favreau > Happy Hogan
Paula Newsome > MIT Assistant Vice Chancellor
Martin Starr > Mr. Harrington
J.K. Simmons > J. Jonah Jameson
Benedict Wong > Wong
Benedict Cumberbatch > Doctor Strange
J.B. Smoove > Mr. Dell
Arian Moayed > Agent Cleary
Tony Revolori > Flash Thompson
Hannibal Buress > Coach Wilson
Angourie Rice > Betty Brant
Zendaya > MJ
Tom Holland > Peter Parker
Tom Holland > Spider-Man
Jacob Batalon > Ned Leeds

Screenshots:












Please Seed For As Long As Possible
Or At Least 1:1 Ratio...Thanks
Enjoy
Trenutno še ni nobenega komentarja.
Nič ni najdeno.