All torrents are Free between 27-11-2022 - 08-01-2023
The.Last.Drop.2006.SRBSubs.1080p.BluRay.x265-RARBG

Klikni za povečavo!
26-04-2022 04:07 naložil BlackDevil
Sejalci: 0 / Odjemalci: 0 / Velikost: 1.6 GB / Dokončani: 28
Prenesi torrent Magnet Link Poročaj torrent Opis torrenta
Kategorija: FILMI > BluRay-1080

COVERS.BOX.SK ::: The Last drop (2005) - high quality DVD / Blueray / Movie
Video
ID : 1
Format : HEVC
Format/Info : High Efficiency Video Coding
Format profile : Main 10@L4@Main
Codec ID : hev1
Codec ID/Info : High Efficiency Video Coding
Duration : 1 h 42 min
Bit rate : 1 996 kb/s
Width : 1 920 pixels
Height : 818 pixels
Display aspect ratio : 2.35:1
Frame rate mode : Constant
Frame rate : 23.976

Audio
ID : 2
Format : AAC LC
Format/Info : Advanced Audio Codec Low Complexity
Codec ID : mp4a-40-2
Duration : 1 h 42 min
Bit rate mode : Constant
Bit rate : 224 kb/s
Channel(s) : 6 channels
Channel layout : C L R Ls Rs LFE
Sampling rate : 48.0 kHz
Frame rate : 46.875 FPS (1024 SPF)
Compression mode : Lossy
Stream size : 165 MiB (10%)
Language : English
Default : Yes

GLAVNE ULOGE:
Billy Zane > Flt. Lt. Robert Oates
Coral Beed > Saskia
Agathe de La Boulaye > Katrina
Jack Dee > Warren
Louis Dempsey > Snyder
Tommy Flanagan > Pvt. Dennis Baker
Laurence Fox > SS Maj. Klaus Kessler
Andrew Howard > Capt. Edward Banks
Nick Moran > Pvt. Alan Ives
Neil Newbon > Cpl. Rhys Powell
Sean Pertwee > Sgt. Bill McMillan
Steve Speirs > Gustav Hansfeldt
Shengdi Wang > Benitta
Rafe Spall > Pvt. David Wellings
Neil Jackson > Flt. Sgt. Simkins

Storyline
In a daring attempt to end the war by Christmas, Winston Churchill and the British High Command hatch an extraordinary plan - Operation Market Garden. 35,000 British troops are dropped behind enemy lines in German occupied Holland. In the midst of the largest airborne invasion in history, one small unit of men, codename "Matchbox" has its own agenda. When Matchbox are shot down short of their landing zone, the odds of their success seem hopeless. Seven very different British soldiers find themselves separated from the Allied invasion, on a collision course with three renegade German soldiers who also want to lay claim to the horde
Magna1810, ViHaR, eva in 3 ostalim je to všeč.
Tagi za tale torrent: Action, Adventure, Drama, War
Delite na socialnem omrežju
COVERS.BOX.SK ::: The Last drop (2005) - high quality DVD / Blueray / Movie
Video
ID : 1
Format : HEVC
Format/Info : High Efficiency Video Coding
Format profile : Main 10@L4@Main
Codec ID : hev1
Codec ID/Info : High Efficiency Video Coding
Duration : 1 h 42 min
Bit rate : 1 996 kb/s
Width : 1 920 pixels
Height : 818 pixels
Display aspect ratio : 2.35:1
Frame rate mode : Constant
Frame rate : 23.976

Audio
ID : 2
Format : AAC LC
Format/Info : Advanced Audio Codec Low Complexity
Codec ID : mp4a-40-2
Duration : 1 h 42 min
Bit rate mode : Constant
Bit rate : 224 kb/s
Channel(s) : 6 channels
Channel layout : C L R Ls Rs LFE
Sampling rate : 48.0 kHz
Frame rate : 46.875 FPS (1024 SPF)
Compression mode : Lossy
Stream size : 165 MiB (10%)
Language : English
Default : Yes

GLAVNE ULOGE:
Billy Zane > Flt. Lt. Robert Oates
Coral Beed > Saskia
Agathe de La Boulaye > Katrina
Jack Dee > Warren
Louis Dempsey > Snyder
Tommy Flanagan > Pvt. Dennis Baker
Laurence Fox > SS Maj. Klaus Kessler
Andrew Howard > Capt. Edward Banks
Nick Moran > Pvt. Alan Ives
Neil Newbon > Cpl. Rhys Powell
Sean Pertwee > Sgt. Bill McMillan
Steve Speirs > Gustav Hansfeldt
Shengdi Wang > Benitta
Rafe Spall > Pvt. David Wellings
Neil Jackson > Flt. Sgt. Simkins

Storyline
In a daring attempt to end the war by Christmas, Winston Churchill and the British High Command hatch an extraordinary plan - Operation Market Garden. 35,000 British troops are dropped behind enemy lines in German occupied Holland. In the midst of the largest airborne invasion in history, one small unit of men, codename "Matchbox" has its own agenda. When Matchbox are shot down short of their landing zone, the odds of their success seem hopeless. Seven very different British soldiers find themselves separated from the Allied invasion, on a collision course with three renegade German soldiers who also want to lay claim to the horde
Trenutno še ni nobenega komentarja.
Nič ni najdeno.