All torrents are Free between 27-11-2022 - 08-01-2023
DJ VIHAR & DJ AJDA - SLO & HR MIX 69

Klikni za povečavo!
27-09-2022 15:06 naložil Ajda
Sejalci: 2 / Odjemalci: 0 / Velikost: 254.87 MB / Dokončani: 22
Prenesi torrent Poročaj torrent Opis torrenta NFO
Kategorija: GLASBA > Glasba




*******************************************************************************
~ DJ VIHAR & DJ AJDA - SLO & HR MIX 69 ~
*******************************************************************************

-------------------------------------------------------------------------------
Avdio podatki
-------------------------------------------------------------------------------
Format : MPEG Audio
File size : 254 MiB
Duration : 1h 51mn
Overall bit rate mode : Constant
Overall bit rate : 320 Kbps
Encoded by : Lavf52.39.0
Writing library : LAME3.98

Audio
Format : MPEG Audio
Format version : Version 1
Format profile : Layer 3
Mode : Joint stereo
Duration : 1h 51mn
Bit rate mode : Constant
Bit rate : 320 Kbps
Channel(s) : 2 channels
Sampling rate : 48.0 KHz
Compression mode : Lossy
Stream size : 254 MiB (100%)
Writing library : LAME3.98

________________________________________
VSEBINA
________________________________________

01. DAVOR BORNO - bolji čovjek
02. IVANA KOVAČ - to se desi
03. LIDIJA BAČIČ - mucho loco
04. NINA DONELLI - ela, ela
05. TINA & NIKŠA - digni me do neba
06. POLKAHOLIKI - tik tak
07. MLADEN GRDOVIČ - natalia
08. JASMIN STAVROS - ej zora je
09. ADI SOŠE Sumer mix
moja zauvijek, čuvaj srce moje, zbogom mila
10. LORENA - tvoja i gotovo
11. SKATER - gasilec samo
12. MLADI GAMSI - mala mucica
13. BUMERANG - što je to u srcu mom
14. LUKA NIZETIČ - kad se rodiš usred splita
15. GAŠPER RIFELJ - s tabo
16. MODRIJANI - vedno pripravljeni
17. ZLATKO PEJAKOVIČ - obriši te suze mama
18. ALEN SLAVICA - ljubav si moja jedina
19. VLADO KALEMBER - ako je kraj
20. VILIBALD VUCO - ludo srce
21. DARJA GAJŠEK - za žur
22. DUŠKO LOKIN - ljeto s tobom
23. MATE BULIČ - čujem draga, bit če svatovi
24. MATKO JELAVIČ - pričaj mi još malo
25. SAŠA LENDERO- daj tekilo
26. NENAD VETMA - anđeli neka te prate
27. DRAŽEN ZEČIČ - nisam više ljubav tvoja
28. IVAN MARTIČ - stara koka
29. DORIS DRAGOVIČ - pjesma i vino
30. ALKA VUICA - pola na pola
31. ZDRAVKO ČOLIČ - ljubav ima lažni sjaj
32. DŽENTELMENI - zavedi me





rexy123, eva, anrejh in 6 ostalim je to všeč.
Delite na socialnem omrežju



*******************************************************************************
~ DJ VIHAR & DJ AJDA - SLO & HR MIX 69 ~
*******************************************************************************

-------------------------------------------------------------------------------
Avdio podatki
-------------------------------------------------------------------------------
Format : MPEG Audio
File size : 254 MiB
Duration : 1h 51mn
Overall bit rate mode : Constant
Overall bit rate : 320 Kbps
Encoded by : Lavf52.39.0
Writing library : LAME3.98

Audio
Format : MPEG Audio
Format version : Version 1
Format profile : Layer 3
Mode : Joint stereo
Duration : 1h 51mn
Bit rate mode : Constant
Bit rate : 320 Kbps
Channel(s) : 2 channels
Sampling rate : 48.0 KHz
Compression mode : Lossy
Stream size : 254 MiB (100%)
Writing library : LAME3.98

________________________________________
VSEBINA
________________________________________

01. DAVOR BORNO - bolji čovjek
02. IVANA KOVAČ - to se desi
03. LIDIJA BAČIČ - mucho loco
04. NINA DONELLI - ela, ela
05. TINA & NIKŠA - digni me do neba
06. POLKAHOLIKI - tik tak
07. MLADEN GRDOVIČ - natalia
08. JASMIN STAVROS - ej zora je
09. ADI SOŠE Sumer mix
moja zauvijek, čuvaj srce moje, zbogom mila
10. LORENA - tvoja i gotovo
11. SKATER - gasilec samo
12. MLADI GAMSI - mala mucica
13. BUMERANG - što je to u srcu mom
14. LUKA NIZETIČ - kad se rodiš usred splita
15. GAŠPER RIFELJ - s tabo
16. MODRIJANI - vedno pripravljeni
17. ZLATKO PEJAKOVIČ - obriši te suze mama
18. ALEN SLAVICA - ljubav si moja jedina
19. VLADO KALEMBER - ako je kraj
20. VILIBALD VUCO - ludo srce
21. DARJA GAJŠEK - za žur
22. DUŠKO LOKIN - ljeto s tobom
23. MATE BULIČ - čujem draga, bit če svatovi
24. MATKO JELAVIČ - pričaj mi još malo
25. SAŠA LENDERO- daj tekilo
26. NENAD VETMA - anđeli neka te prate
27. DRAŽEN ZEČIČ - nisam više ljubav tvoja
28. IVAN MARTIČ - stara koka
29. DORIS DRAGOVIČ - pjesma i vino
30. ALKA VUICA - pola na pola
31. ZDRAVKO ČOLIČ - ljubav ima lažni sjaj
32. DŽENTELMENI - zavedi me





Trenutno še ni nobenega komentarja.
*******************************************************************************

                               \\\ ///

                           @/ _ _ \@

                            ( (o) (o) )

          ==oOOO==(_)====OOOo====

               ~ www.ViDEOTEKA.org ~

      =========== Oooo.====
                                (   )
                    .oooO        ) / 
                    (   )       (_/
                     \ (          
                      \_)


*******************************************************************************
               ~ DJ VIHAR & DJ AJDA -  SLO & HR MIX 69 ~
*******************************************************************************

-------------------------------------------------------------------------------
                          Avdio  podatki
-------------------------------------------------------------------------------
Format                                   : MPEG Audio
File size                                : 254 MiB
Duration                                 : 1h 51mn
Overall bit rate mode                    : Constant
Overall bit rate                         : 320 Kbps
Encoded by                               : Lavf52.39.0
Writing library                          : LAME3.98

Audio
Format                                   : MPEG Audio
Format version                           : Version 1
Format profile                           : Layer 3
Mode                                     : Joint stereo
Duration                                 : 1h 51mn
Bit rate mode                            : Constant
Bit rate                                 : 320 Kbps
Channel(s)                               : 2 channels
Sampling rate                            : 48.0 KHz
Compression mode                         : Lossy
Stream size                              : 254 MiB (100%)
Writing library                          : LAME3.98

________________________________________
                             VSEBINA
________________________________________

01. DAVOR BORNO - bolji ##ovjek
02. IVANA KOVA## - to se desi
03. LIDIJA BA##I## - mucho loco
04. NINA DONELLI - ela, ela
05. TINA & NIK##A - digni me do neba
06. POLKAHOLIKI - tik tak
07. MLADEN GRDOVI## - natalia
08. JASMIN STAVROS - ej zora je
09. ADI SO##E  Sumer mix
moja zauvijek, ##uvaj srce moje, zbogom mila
10. LORENA - tvoja i gotovo
11. SKATER - gasilec samo
12. MLADI GAMSI - mala mucica
13. BUMERANG - ##to je to u srcu mom
14. LUKA NIZETI## - kad se rodi## usred splita
15. GA##PER RIFELJ - s tabo
16. MODRIJANI - vedno pripravljeni
17. ZLATKO PEJAKOVI## - obri##i te suze mama
18. ALEN SLAVICA - ljubav si moja jedina
19. VLADO KALEMBER - ako je kraj
20. VILIBALD VUCO - ludo srce
21. DARJA GAJ##EK - za ##ur
22. DU##KO LOKIN - ljeto s tobom
23. MATE BULI## - ##ujem draga, bit ##e svatovi
24. MATKO JELAVI## - pri##aj mi jo## malo
25. SA##A LENDERO- daj tekilo
26. NENAD VETMA  - an##eli neka te prate
27. DRA##EN ZE##I## - nisam vi##e ljubav tvoja
28. IVAN MARTI## - stara koka
29. DORIS DRAGOVI## - pjesma i vino
30. ALKA VUICA - pola na pola
31. ZDRAVKO ##OLI## - ljubav ima la##ni sjaj
32. D##ENTELMENI - zavedi me