DJ VIHAR & DJ AJDA - SLO & HR MIX 70

Klikni za povečavo!
07-11-2022 17:23 naložil Ajda
Sejalci: 4 / Odjemalci: 0 / Velikost: 234.49 MB / Dokončani: 38
Prenesi torrent Poročaj torrent Opis torrenta NFO
Kategorija: GLASBA > Glasba





-------------------------------------------------------------------------------
Avdio podatki
-------------------------------------------------------------------------------
Format : MPEG Audio
File size : 234 MiB
Duration : 1h 42mn
Overall bit rate mode : Constant
Overall bit rate : 320 Kbps
Encoded by : Lavf52.39.0
Writing library : LAME3.98

Audio
Format : MPEG Audio
Format version : Version 1
Format profile : Layer 3
Mode : Joint stereo
Duration : 1h 42mn
Bit rate mode : Constant
Bit rate : 320 Kbps
Channel(s) : 2 channels
Sampling rate : 48.0 KHz
Compression mode : Lossy
Stream size : 234 MiB (100%)
Writing library : LAME3.98
________________________________________
VSEBINA
________________________________________

01. Mladen Grdovič - volio sam jednu ženu
02. Mate Bulič - sanjao sam da si pored mene
03. Martina Švab - ogenj v meni
04. Zdravko Čolič - ljubav ima lažni sjaj
05. Skupina Chicas - aplavz zate
06. Luka Basi Klapa Kampanel - zasvirajte neko drugo veče
07. Alen Slavica - slika v pijesku
08. Ivan Martič Ivica - ja sam sokol
09. Doris Dragovič - srce vuče južnom kraju
10. Krunoslav Kičo Slabinac - dok sanjaš
11. Nenad Vetma - Lastavice mala
12. Vili Resnik - Lepa za umret
13. Dražen Zečič - poljubi me jednom za kraj
14. Senad Galijaševič - Jasmina
15. Jasmin Stavros - Bila je
16. Jan plestenjak - Na vetru s severa
17. Jasna Zlokič - Povedi me
18. Dražen Zečič - Živi danas
19. Opatijski Suveniri - Ti si moja sladka
20. Miro Ungar - sad me opet voliš ti
21. Tomislav Bralič - Ti si kriva
22. Ivan Zak Boban Rajovic - Kilometri ljubavi
23. Zdravko Škender - Nakon svih tih godina
24. Dani Maršan - Dugi otok
25. Milo Hrnič - Budi nočas mirno more
26. Dražen Zečič - Da mi daju carstvo
27. Davor Borno - Dobra moja
28. Mišo Kovač - Nočas si ljepa
29. Klapa Rišpet - Lud za tobom
30. Matko Jelavič - Pričaj mi još malo






rexy123, HERMANZ, grobarji in 6 ostalim je to všeč.
Delite na socialnem omrežju




-------------------------------------------------------------------------------
Avdio podatki
-------------------------------------------------------------------------------
Format : MPEG Audio
File size : 234 MiB
Duration : 1h 42mn
Overall bit rate mode : Constant
Overall bit rate : 320 Kbps
Encoded by : Lavf52.39.0
Writing library : LAME3.98

Audio
Format : MPEG Audio
Format version : Version 1
Format profile : Layer 3
Mode : Joint stereo
Duration : 1h 42mn
Bit rate mode : Constant
Bit rate : 320 Kbps
Channel(s) : 2 channels
Sampling rate : 48.0 KHz
Compression mode : Lossy
Stream size : 234 MiB (100%)
Writing library : LAME3.98
________________________________________
VSEBINA
________________________________________

01. Mladen Grdovič - volio sam jednu ženu
02. Mate Bulič - sanjao sam da si pored mene
03. Martina Švab - ogenj v meni
04. Zdravko Čolič - ljubav ima lažni sjaj
05. Skupina Chicas - aplavz zate
06. Luka Basi Klapa Kampanel - zasvirajte neko drugo veče
07. Alen Slavica - slika v pijesku
08. Ivan Martič Ivica - ja sam sokol
09. Doris Dragovič - srce vuče južnom kraju
10. Krunoslav Kičo Slabinac - dok sanjaš
11. Nenad Vetma - Lastavice mala
12. Vili Resnik - Lepa za umret
13. Dražen Zečič - poljubi me jednom za kraj
14. Senad Galijaševič - Jasmina
15. Jasmin Stavros - Bila je
16. Jan plestenjak - Na vetru s severa
17. Jasna Zlokič - Povedi me
18. Dražen Zečič - Živi danas
19. Opatijski Suveniri - Ti si moja sladka
20. Miro Ungar - sad me opet voliš ti
21. Tomislav Bralič - Ti si kriva
22. Ivan Zak Boban Rajovic - Kilometri ljubavi
23. Zdravko Škender - Nakon svih tih godina
24. Dani Maršan - Dugi otok
25. Milo Hrnič - Budi nočas mirno more
26. Dražen Zečič - Da mi daju carstvo
27. Davor Borno - Dobra moja
28. Mišo Kovač - Nočas si ljepa
29. Klapa Rišpet - Lud za tobom
30. Matko Jelavič - Pričaj mi još malo






Trenutno še ni nobenega komentarja.
*******************************************************************************

                               \\\ ///

                           @/ _ _ \@

                            ( (o) (o) )

          ==oOOO==(_)====OOOo====

               ~ www.ViDEOTEKA.org ~

      =========== Oooo.====
                                (   )
                    .oooO        ) / 
                    (   )       (_/
                     \ (          
                      \_)


*******************************************************************************
               ~ DJ VIHAR & DJ AJDA -  SLO & HR MIX 70 ~
*******************************************************************************

-------------------------------------------------------------------------------
                          Avdio  podatki
-------------------------------------------------------------------------------
Format                                   : MPEG Audio
File size                                : 234 MiB
Duration                                 : 1h 42mn
Overall bit rate mode                    : Constant
Overall bit rate                         : 320 Kbps
Encoded by                               : Lavf52.39.0
Writing library                          : LAME3.98

Audio
Format                                   : MPEG Audio
Format version                           : Version 1
Format profile                           : Layer 3
Mode                                     : Joint stereo
Duration                                 : 1h 42mn
Bit rate mode                            : Constant
Bit rate                                 : 320 Kbps
Channel(s)                               : 2 channels
Sampling rate                            : 48.0 KHz
Compression mode                         : Lossy
Stream size                              : 234 MiB (100%)
Writing library                          : LAME3.98


________________________________________
                             VSEBINA
________________________________________


01. Mladen Grdovi## - volio sam jednu ##enu
02. Mate Buli## - sanjao sam da si pored mene
03. Martina ##vab - ogenj v meni
04. Zdravko ##oli## - ljubav ima la##ni sjaj
05. Skupina Chicas - aplavz zate
06. Luka Basi Klapa Kampanel - zasvirajte neko drugo ve##e
07. Alen Slavica - slika v pijesku
08. Ivan Marti## Ivica - ja sam sokol
09. Doris Dragovi## - srce vu##e ju##nom kraju
10. Krunoslav Ki##o Slabinac - dok sanja##
11. Nenad Vetma - Lastavice mala
12. Vili Resnik - Lepa za umret
13. Dra##en Ze##i## - poljubi me jednom za kraj
14. Senad Galija##evi## - Jasmina
15. Jasmin Stavros - Bila je
16. Jan plestenjak - Na vetru s severa
17. Jasna Zloki## - Povedi me
18. Dra##en Ze##i## - ##ivi danas
19. Opatijski Suveniri - Ti si moja sladka
20. Miro Ungar - sad me opet voli## ti 
21. Tomislav Brali## - Ti si kriva
22. Ivan Zak Boban Rajovic - Kilometri ljubavi
23. Zdravko ##kender - Nakon svih tih godina
24. Dani Mar##an - Dugi otok
25. Milo Hrni## - Budi no##as mirno more
26. Dra##en Ze##i## - Da mi daju carstvo
27. Davor Borno - Dobra moja
28. Mi##o Kova## - No##as si ljepa
29. Klapa Ri##pet - Lud za tobom
30. Matko Jelavi## - Pri##aj mi jo## malo