DJ VIHAR & DJ AJDA - SLO & HR MIX 39

Klikni za povečavo!
05-04-2015 16:33 naložil Ajda
Sejalci: 0 / Odjemalci: 0 / Velikost: 224.69 MB / Dokončani: 46
Prenesi torrent Poročaj torrent Opis torrenta NFO
Zvrst: Glasbeni
Kategorija: GLASBA > Glasba






INFO:
Format : MPEG Audio
File size : 224 MiB
Duration : 1h 37mn
Overall bit rate mode : Constant
Overall bit rate : 320 Kbps
Encoded by : Lavf52.39.0
Writing library : LAME3.98

Audio
Format : MPEG Audio
Format version : Version 1
Format profile : Layer 3
Mode : Joint stereo
Mode extension : MS Stereo
Duration : 1h 37mn
Bit rate mode : Constant
Bit rate : 320 Kbps
Channel(s) : 2 channels
Sampling rate : 48.0 KHz
Compression mode : Lossy
Stream size : 224 MiB (100%)
Writing library : LAME3.98


MIX 39

1.NOCNI SKOK – Ribe
2.SKUPINA CALYPSO – Moja sladka ljubica
3.KUMOVI – Da mi zivot da
4.MULEC&ROPOTAR – Za eno noc zivljenja
5.NAVIHANKE – Z nami vsi norijo
6.IVAN STAPIC – Ajde cao, vidimo se
7.GRUPA VIGOR – Divna
8.MLADA POT – Ponujal sem ti nebesa
9.NINA – Nina zovu me
10.GRUPA torpedo – Sto je bilo, bilo je
11.ANDRIJA KOS & DUSA BAND – Zao mi je zao
12.IVAN ZAK – Dugujes mi ljeto
13.NIVES CELZIJUS – Lutrija
14.JASMIN STAVROS – Opet mlad
15.MEJASI – Bolje nego ikad
16.IVAN SECEN – Suze neka teku
17.SMILJAN – Tvoja oka dva
18.IVANA KOVAC – Ludilo
19.LIDIJA BACIC – Naivna sam ali nisam luda
20.FRANCE in ANITA – Ti si to
21.ZLATKO DOBRIC & VIDA SADEK – Krompircek
22.PERO PANJKOVIC – Biseri ne ljube
23.NEVEN PRASTALO – Nemam ja srce za bacanje
24.JOSKO TOMICIC – Kad ti suza ponestane
25.KORNELIJE NELLY – Andzeo sa neba
26.NEDA UKRADEN & IVAN ZAK - Tetovaza
27.DOLORES & DUSKO LOKIN – Dobro jutro dalmacijo
28.ROBERT FICKER – Mirise jutro na tvoju ljubav
29.MLADEN KOS – Ne vjeruj vinu
30.ANGELLO - Rozika


rexy123, HERMANZ in Ziva je to všeč.
Tagi za tale torrent: ...veselo pisanko...
Delite na socialnem omrežju





INFO:
Format : MPEG Audio
File size : 224 MiB
Duration : 1h 37mn
Overall bit rate mode : Constant
Overall bit rate : 320 Kbps
Encoded by : Lavf52.39.0
Writing library : LAME3.98

Audio
Format : MPEG Audio
Format version : Version 1
Format profile : Layer 3
Mode : Joint stereo
Mode extension : MS Stereo
Duration : 1h 37mn
Bit rate mode : Constant
Bit rate : 320 Kbps
Channel(s) : 2 channels
Sampling rate : 48.0 KHz
Compression mode : Lossy
Stream size : 224 MiB (100%)
Writing library : LAME3.98


MIX 39

1.NOCNI SKOK – Ribe
2.SKUPINA CALYPSO – Moja sladka ljubica
3.KUMOVI – Da mi zivot da
4.MULEC&ROPOTAR – Za eno noc zivljenja
5.NAVIHANKE – Z nami vsi norijo
6.IVAN STAPIC – Ajde cao, vidimo se
7.GRUPA VIGOR – Divna
8.MLADA POT – Ponujal sem ti nebesa
9.NINA – Nina zovu me
10.GRUPA torpedo – Sto je bilo, bilo je
11.ANDRIJA KOS & DUSA BAND – Zao mi je zao
12.IVAN ZAK – Dugujes mi ljeto
13.NIVES CELZIJUS – Lutrija
14.JASMIN STAVROS – Opet mlad
15.MEJASI – Bolje nego ikad
16.IVAN SECEN – Suze neka teku
17.SMILJAN – Tvoja oka dva
18.IVANA KOVAC – Ludilo
19.LIDIJA BACIC – Naivna sam ali nisam luda
20.FRANCE in ANITA – Ti si to
21.ZLATKO DOBRIC & VIDA SADEK – Krompircek
22.PERO PANJKOVIC – Biseri ne ljube
23.NEVEN PRASTALO – Nemam ja srce za bacanje
24.JOSKO TOMICIC – Kad ti suza ponestane
25.KORNELIJE NELLY – Andzeo sa neba
26.NEDA UKRADEN & IVAN ZAK - Tetovaza
27.DOLORES & DUSKO LOKIN – Dobro jutro dalmacijo
28.ROBERT FICKER – Mirise jutro na tvoju ljubav
29.MLADEN KOS – Ne vjeruj vinu
30.ANGELLO - Rozika


smile...
Ajda 05-04-2015 17:38
*******************************************************************************

                            \\\ ///

                           @/ _ _ \@

                          ( (o) (o) )

                      ==oOOO==(_)====OOOo====

                           ~ www.ViDEOTEKA.org ~

                    =========== Oooo.====
                                (   )
                    .oooO        ) / 
                    (   )       (_/
                     \ (          
                      \_)


*******************************************************************************
               ~ DJ VIHAR & DJ AJDA -  SLO & HR MIX 39 ~
*******************************************************************************

-------------------------------------------------------------------------------
                          Avdio in Video podatki
-------------------------------------------------------------------------------
Format                                   : MPEG Audio
File size                                : 224 MiB
Duration                                 : 1h 37mn
Overall bit rate mode                    : Constant
Overall bit rate                         : 320 Kbps
Encoded by                               : Lavf52.39.0
Writing library                          : LAME3.98

Audio
Format                                   : MPEG Audio
Format version                           : Version 1
Format profile                           : Layer 3
Mode                                     : Joint stereo
Mode extension                           : MS Stereo
Duration                                 : 1h 37mn
Bit rate mode                            : Constant
Bit rate                                 : 320 Kbps
Channel(s)                               : 2 channels
Sampling rate                            : 48.0 KHz
Compression mode                         : Lossy
Stream size                              : 224 MiB (100%)
Writing library                          : LAME3.98


MIX 39

1.NOCNI SKOK # Ribe
2.SKUPINA CALYPSO # Moja sladka ljubica
3.KUMOVI # Da mi zivot da
4.MULEC&ROPOTAR # Za eno noc zivljenja
5.NAVIHANKE # Z nami vsi norijo
6.IVAN STAPIC # Ajde cao, vidimo se
7.GRUPA VIGOR # Divna
8.MLADA POT # Ponujal sem ti nebesa
9.NINA # Nina zovu me
10.GRUPA TORNADO # Sto je bilo, bilo je
11.ANDRIJA KOS & DUSA BAND # Zao mi je zao
12.IVAN ZAK # Dugujes mi ljeto
13.NIVES CELZIJUS # Lutrija
14.JASMIN STAVROS # Opet mlad
15.MEJASI # Bolje nego ikad
16.IVAN SECEN # Suze neka teku
17.SMILJAN # Tvoja oka dva
18.IVANA KOVAC # Ludilo
19.LIDIJA BACIC # Naivna sam ali nisam luda
20.FRANCE in ANITA # Ti si to
21.ZLATKO DOBRIC & VIDA SADEK # Krompircek
22.PERO PANJKOVIC # Biseri ne ljube
23.NEVEN PRASTALO # Nemam ja srce za bacanje
24.JOSKO TOMICIC # Kad ti suza ponestane
25.KORNELIJE NELLY # Andzeo sa neba
26.NEDA UKRADEN & IVAN ZAK - Tetovaza 
27.DOLORES & DUSKO LOKIN # Dobro jutro dalmacijo
28.ROBERT FICKER # Mirise jutro na tvoju ljubav
29.MLADEN KOS # Ne vjeruj vinu
30.ANGELLO - Rozika