DJ VIHAR & DJ AJDA - SLO & HR MIX 42

Klikni za povečavo!
02-11-2015 22:30 naložil Ajda
Sejalci: 1 / Odjemalci: 0 / Velikost: 227.57 MB / Dokončani: 74
Prenesi torrent Poročaj torrent Opis torrenta NFO
Zvrst: Glasbeni
Kategorija: GLASBA > Glasba






General
Complete name : DJ AJDA - SLO & HR MIX 42.mp3
Format : MPEG Audio
File size : 227 MiB
Duration : 1h 39mn
Overall bit rate mode : Constant
Overall bit rate : 320 Kbps
Encoded by : Lavf52.39.0
Writing library : LAME3.98

Audio
Format : MPEG Audio
Format version : Version 1
Format profile : Layer 3
Mode : Joint stereo
Mode extension : MS Stereo
Duration : 1h 39mn
Bit rate mode : Constant
Bit rate : 320 Kbps
Channel(s) : 2 channels
Sampling rate : 48.0 KHz
Compression mode : Lossy
Stream size : 227 MiB (100%)
Writing library : LAME3.98


1.TANJA ŽAGAR - Carica
2.LUKA NIZETIČ - Jugo
3.MILO HRNIČ - Čudna žena
4.ĐURĐICA BARLOVIČ - Samo ti i ja
5.DUBROVAČKI TRUBADURI - Oprosti dušo
6.MLADEN HITREC - Teško mi je prijatelji
7.ŽELJKO POKUPEC ŠERO - Čaša tuge
8.TOMISLAV ŠUSTIČ - Ne krivi mene
9.SAŠA KOVAČEVIČ - Slučajno
10.JOŠKO TOMIČIČ - Dobro jutro zlato moje
11.PERO PANJKOVIČ - Prijatelju moj
12.KOKTELSI - Lumpanje
13.MAURO STARAJ& LABANDA - Jože, Jože, Jože
14.DŽO MARAČIČ - Jambalaya
15.GRUPA VIGOR - Još fališ
16.FINAL - Tvoj objem
17.SANDI CENOV - Naša pjesma
18.TENA - Znaš dragi moj
19.NATAŠA MADZJAR - Zate hranim srce
20.POP EXPRES - Ljubi me
21.GRUPA torpedo - Sjever i jug
22.SANJA TRUMBIČ - Pišem ti pismo
23.FRANCE & ANITA - Vesela punca
24.ŠTAJERSKI BRENDI - Štajerc sem tapravi
25.MLADEN GRDOVIČ - Maria bella istriana
26.DARKO DOMIJAN - Dajem ti srce
27.MARINELLA - Dušu imam ja
28.MIRO BOEM - Zbog tebe sam Boem postao
29.JASMIN STAVROS - Varaj me
30.NENAD KERO BEPO - Evo ti dušo dajem


HERMANZ, bodo, Spartakus in 2 ostalim je to všeč.
Tagi za tale torrent: Mix 42
Delite na socialnem omrežju





General
Complete name : DJ AJDA - SLO & HR MIX 42.mp3
Format : MPEG Audio
File size : 227 MiB
Duration : 1h 39mn
Overall bit rate mode : Constant
Overall bit rate : 320 Kbps
Encoded by : Lavf52.39.0
Writing library : LAME3.98

Audio
Format : MPEG Audio
Format version : Version 1
Format profile : Layer 3
Mode : Joint stereo
Mode extension : MS Stereo
Duration : 1h 39mn
Bit rate mode : Constant
Bit rate : 320 Kbps
Channel(s) : 2 channels
Sampling rate : 48.0 KHz
Compression mode : Lossy
Stream size : 227 MiB (100%)
Writing library : LAME3.98


1.TANJA ŽAGAR - Carica
2.LUKA NIZETIČ - Jugo
3.MILO HRNIČ - Čudna žena
4.ĐURĐICA BARLOVIČ - Samo ti i ja
5.DUBROVAČKI TRUBADURI - Oprosti dušo
6.MLADEN HITREC - Teško mi je prijatelji
7.ŽELJKO POKUPEC ŠERO - Čaša tuge
8.TOMISLAV ŠUSTIČ - Ne krivi mene
9.SAŠA KOVAČEVIČ - Slučajno
10.JOŠKO TOMIČIČ - Dobro jutro zlato moje
11.PERO PANJKOVIČ - Prijatelju moj
12.KOKTELSI - Lumpanje
13.MAURO STARAJ& LABANDA - Jože, Jože, Jože
14.DŽO MARAČIČ - Jambalaya
15.GRUPA VIGOR - Još fališ
16.FINAL - Tvoj objem
17.SANDI CENOV - Naša pjesma
18.TENA - Znaš dragi moj
19.NATAŠA MADZJAR - Zate hranim srce
20.POP EXPRES - Ljubi me
21.GRUPA torpedo - Sjever i jug
22.SANJA TRUMBIČ - Pišem ti pismo
23.FRANCE & ANITA - Vesela punca
24.ŠTAJERSKI BRENDI - Štajerc sem tapravi
25.MLADEN GRDOVIČ - Maria bella istriana
26.DARKO DOMIJAN - Dajem ti srce
27.MARINELLA - Dušu imam ja
28.MIRO BOEM - Zbog tebe sam Boem postao
29.JASMIN STAVROS - Varaj me
30.NENAD KERO BEPO - Evo ti dušo dajem


škoda ko niso komadi en po en not ampak vse stišano v en mp3 fajl ni moje področje to drugač pa dober up a kiks okol komadov je za moje pojme nepremostljiv...
Qmen 07-09-2015 20:12
Qmen, ravno to je čar mixov. (drugače jih ne bi bilo) smile
ViHaR 08-09-2015 14:41
zelo dobro delolimo
Zdravko 09-09-2015 10:45
*******************************************************************************

                            \\\ ///

                           @/ _ _ \@

                          ( (o) (o) )

                      ==oOOO==(_)====OOOo====

                           ~ www.ViDEOTEKA.org ~

                    =========== Oooo.====
                                (   )
                    .oooO        ) / 
                    (   )       (_/
                     \ (          
                      \_)


*******************************************************************************
               ~ DJ VIHAR & DJ AJDA -  SLO & HR MIX 42 ~
*******************************************************************************

-------------------------------------------------------------------------------
                          Avdio in Video podatki
-------------------------------------------------------------------------------

General
Complete name                            : DJ AJDA -  SLO & HR MIX 42.mp3
Format                                   : MPEG Audio
File size                                : 227 MiB
Duration                                 : 1h 39mn
Overall bit rate mode                    : Constant
Overall bit rate                         : 320 Kbps
Encoded by                               : Lavf52.39.0
Writing library                          : LAME3.98

Audio
Format                                   : MPEG Audio
Format version                           : Version 1
Format profile                           : Layer 3
Mode                                     : Joint stereo
Mode extension                           : MS Stereo
Duration                                 : 1h 39mn
Bit rate mode                            : Constant
Bit rate                                 : 320 Kbps
Channel(s)                               : 2 channels
Sampling rate                            : 48.0 KHz
Compression mode                         : Lossy
Stream size                              : 227 MiB (100%)
Writing library                          : LAME3.98


MIX 42

1.TANJA #AGAR - Carica
2.LUKA NIZETI# - Jugo
3.MILO HRNI# - #udna #ena
4.#UR#ICA BARLOVI# - Samo ti i ja
5.DUBROVA#KI TRUBADURI - Oprosti du#o
6.MLADEN HITREC - Te#ko mi je prijatelji
7.#ELJKO POKUPEC #ERO - #a#a tuge
8.TOMISLAV #USTI# - Ne krivi mene
9.SA#A KOVA#EVI# - Slu#ajno
10.JO#KO TOMI#I# - Dobro jutro zlato moje
11.PERO PANJKOVI# - Prijatelju moj
12.KOKTELSI - Lumpanje
13.MAURO STARAJ& LABANDA - Jo#e, Jo#e, Jo#e
14.D#O MARA#I# - Jambalaya
15.GRUPA VIGOR - Jo# fali#
16.FINAL - Tvoj objem
17.SANDI CENOV - Na#a pjesma
18.TENA - Zna# dragi moj
19.NATA#A MADZJAR - Zate hranim srce
20.POP EXPRES - Ljubi me
21.GRUPA TORNADO - Sjever i jug
22.SANJA TRUMBI# - Pi#em ti pismo
23.FRANCE & ANITA - Vesela punca
24.#TAJERSKI BRENDI - #tajerc sem tapravi
25.MLADEN GRDOVI# - Maria bella istriana
26.DARKO DOMIJAN - Dajem ti srce
27.MARINELLA - Du#u imam ja
28.MIRO BOEM - Zbog tebe sam Boem postao
29.JASMIN STAVROS - Varaj me
30.NENAD KERO BEPO - Evo ti du#o dajem