DJ VIHAR & DJ AJDA - SLO & HR MIX 43

Klikni za povečavo!
06-01-2016 20:35 naložil Ajda
Sejalci: 1 / Odjemalci: 0 / Velikost: 273.17 MB / Dokončani: 55
Prenesi torrent Poročaj torrent Opis torrenta NFO
Kategorija: GLASBA > Glasba






Complete name : DJ VIHAR & DJ AJDA - SLO & HR MIX 43
Format : MPEG Audio
File size : 272 MiB
Duration : 1h 58mn
Overall bit rate mode : Constant
Overall bit rate : 320 Kbps
Encoded by : Lavf52.39.0
Writing library : LAME3.98

Audio
Format : MPEG Audio
Format version : Version 1
Format profile : Layer 3
Mode : Joint stereo
Mode extension : MS Stereo
Duration : 1h 58mn
Bit rate mode : Constant
Bit rate : 320 Kbps
Channel(s) : 2 channels
Sampling rate : 48.0 KHz
Compression mode : Lossy
Stream size : 272 MiB (100%)
Writing library : LAME3.98


1.WERNER - Evo mene
2.ROBERT FICKER - Da odmorim duso
3.BERNY - Oci zelene
4.DUSKO LOKIN - Ti moju tugu ne cujes
5.KATRCA - Supermen
6.VIGOR - Zivot je raj
7.MIROSLAV SKORO - Zadnja zelja
8.ZLATKO DOBRIC - Danica
9.VIKTORIJA - Dve pomladi, dve jeseni
10.MISO KOVAC- Oprosti mi
11.CEBRAJEC CEBO in GRUPA HOLLYWOOD - Zbog tebe placem
12.TANJA ZAGAR - Idu idu godine
13.BARUNI - Za tebe sam ljubav cuvao
14.BARABE - Zene su zakon
15.DZENTELMEN - Kako me nerviras
16.MILIGRAM - Sigurica
17.ZLATKO PEJAKOVIC - Tko ti spava sa desne strane
18.JAN PLESTENJAK - Stara dobra
19.NATASA MADJAR - Daj ljubezen
20.JADRANKA - Dala bi ti dala
21.BERNY FEAT TAZ SOLDO - Zao mi je
22.SIMONA WEISS - Nekje zame luc gori
23.KLAPA AKTUAL - Ti si mi sve
24.JURAJ GALINA IN IGOR DELAC - Ne vjeruj vinu
25.ROKO BAZIKA - Sedam dana
26.JOLE - Bailando solo
27.DALEKA OBALA - Od mora do mora
28.VINKO COCE - Koliko te na rastanku volim
29.DURO - Kazi mi duso iskreno
30.JASMIN STAVROS - Kazi sto mi fali
31.BEREKINI - Viruj ti meni
32.RAZBIJACI CASA - Zasto mi se cesta ljulja
33.ZELJKO SESVECAN - Kako da te zaboravim
34.TRIO RIO - Pozdravi je ptico moja
35.UCITELJICE - Sok




HERMANZ, Spartakus, bodo in 2 ostalim je to všeč.
Tagi za tale torrent: Mix 43
Delite na socialnem omrežju





Complete name : DJ VIHAR & DJ AJDA - SLO & HR MIX 43
Format : MPEG Audio
File size : 272 MiB
Duration : 1h 58mn
Overall bit rate mode : Constant
Overall bit rate : 320 Kbps
Encoded by : Lavf52.39.0
Writing library : LAME3.98

Audio
Format : MPEG Audio
Format version : Version 1
Format profile : Layer 3
Mode : Joint stereo
Mode extension : MS Stereo
Duration : 1h 58mn
Bit rate mode : Constant
Bit rate : 320 Kbps
Channel(s) : 2 channels
Sampling rate : 48.0 KHz
Compression mode : Lossy
Stream size : 272 MiB (100%)
Writing library : LAME3.98


1.WERNER - Evo mene
2.ROBERT FICKER - Da odmorim duso
3.BERNY - Oci zelene
4.DUSKO LOKIN - Ti moju tugu ne cujes
5.KATRCA - Supermen
6.VIGOR - Zivot je raj
7.MIROSLAV SKORO - Zadnja zelja
8.ZLATKO DOBRIC - Danica
9.VIKTORIJA - Dve pomladi, dve jeseni
10.MISO KOVAC- Oprosti mi
11.CEBRAJEC CEBO in GRUPA HOLLYWOOD - Zbog tebe placem
12.TANJA ZAGAR - Idu idu godine
13.BARUNI - Za tebe sam ljubav cuvao
14.BARABE - Zene su zakon
15.DZENTELMEN - Kako me nerviras
16.MILIGRAM - Sigurica
17.ZLATKO PEJAKOVIC - Tko ti spava sa desne strane
18.JAN PLESTENJAK - Stara dobra
19.NATASA MADJAR - Daj ljubezen
20.JADRANKA - Dala bi ti dala
21.BERNY FEAT TAZ SOLDO - Zao mi je
22.SIMONA WEISS - Nekje zame luc gori
23.KLAPA AKTUAL - Ti si mi sve
24.JURAJ GALINA IN IGOR DELAC - Ne vjeruj vinu
25.ROKO BAZIKA - Sedam dana
26.JOLE - Bailando solo
27.DALEKA OBALA - Od mora do mora
28.VINKO COCE - Koliko te na rastanku volim
29.DURO - Kazi mi duso iskreno
30.JASMIN STAVROS - Kazi sto mi fali
31.BEREKINI - Viruj ti meni
32.RAZBIJACI CASA - Zasto mi se cesta ljulja
33.ZELJKO SESVECAN - Kako da te zaboravim
34.TRIO RIO - Pozdravi je ptico moja
35.UCITELJICE - Sok




Trenutno še ni nobenega komentarja.
1.WERNER - Evo mene
2.ROBERT FICKER - Da odmorim duso
3.BERNY - Oci zelene
4.DUSKO LOKIN - Ti moju tugu ne cujes
5.KATRCA - Supermen
6.VIGOR - Zivot je raj
7.MIROSLAV SKORO - Zadnja zelja
8.ZLATKO DOBRIC - Danica
9.VIKTORIJA - Dve pomladi, dve jeseni
10.MISO KOVAC- Oprosti mi
11.CEBRAJEC CEBO in GRUPA HOLLYWOOD - Zbog tebe placem
12.TANJA ZAGAR - Idu idu godine
13.BARUNI - Za tebe sam ljubav cuvao
14.BARABE - Zene su zakon
15.DZENTELMEN - Kako me nerviras
16.MILIGRAM - Sigurica
17.ZLATKO PEJAKOVIC - Tko ti spava sa desne strane
18.JAN PLESTENJAK - Stara dobra
19.NATASA MADJAR - Daj ljubezen
20.JADRANKA - Dala bi ti dala
21.BERNY FEAT TAZ SOLDO - Zao mi je
22.SIMONA WEISS - Nekje zame luc gori
23.KLAPA AKTUAL - Ti si mi sve
24.JURAJ GALINA IN IGOR DELAC - Ne vjeruj vinu
25.ROKO BAZIKA - Sedam dana
26.JOLE - Bailando solo
27.DALEKA OBALA - Od mora do mora
28.VINKO COCE - Koliko te na rastanku volim
29.DURO - Kazi mi duso iskreno
30.JASMIN STAVROS - Kazi sto mi fali
31.BEREKINI - Viruj ti meni
32.RAZBIJACI CASA - Zasto mi se cesta ljulja
33.ZELJKO SESVECAN - Kako da te zaboravim
34.TRIO RIO - Pozdravi je ptico moja
35.UCITELJICE - Sok