Rapture Palooza.2013.CROSub.DVDRip.XviD.RARBG

Klikni za povečavo!
23-04-2014 13:11 naložil Ziva
Sejalci: 0 / Odjemalci: 0 / Velikost: 698.4 MB / Dokončani: 6
Prenesi torrent Magnet Link Poročaj torrent Opis torrenta NFO Trailer
IMDB Rating: 5.2 5.2/10 Zvrst: Fantazijski | Komedija
Kategorija:
http://www.imdb.com/title/tt1879032/


INFO:
Codec ID : XVID
Codec ID/Hint : XviD
Duration : 1h 24mn
Bit rate : 1 015 Kbps
Width : 720 pixels
Height : 304 pixels
Display aspect ratio : 2.35:1
Frame rate : 23.976 fps
Color space : YUV
Chroma subsampling : 4:2:0
Bit depth : 8 bits
Podnapisi : Hrvaški


IGRAJO:
Craig Robinson ... The Beast
Anna Kendrick ... Lindsey Lewis
John Francis Daley ... Ben House
Rob Corddry ... Mr. House
Ana Gasteyer ... Mrs. Lewis
John Michael Higgins ... Mr. Lewis

KRATKA VSEBINA:
Two teens battle their way through a religious apocalypse on a mission to defeat the Antichrist.

Delite na socialnem omrežju

INFO:
Codec ID : XVID
Codec ID/Hint : XviD
Duration : 1h 24mn
Bit rate : 1 015 Kbps
Width : 720 pixels
Height : 304 pixels
Display aspect ratio : 2.35:1
Frame rate : 23.976 fps
Color space : YUV
Chroma subsampling : 4:2:0
Bit depth : 8 bits
Podnapisi : Hrvaški


IGRAJO:
Craig Robinson ... The Beast
Anna Kendrick ... Lindsey Lewis
John Francis Daley ... Ben House
Rob Corddry ... Mr. House
Ana Gasteyer ... Mrs. Lewis
John Michael Higgins ... Mr. Lewis

KRATKA VSEBINA:
Two teens battle their way through a religious apocalypse on a mission to defeat the Antichrist.

Trenutno še ni nobenega komentarja.
IMDB Osveži
Rapture-Palooza (2013)
85 minutes - Comedy | Fantasy
IMDB Rating: 5.2 5.2/10 (5,146 votes)
Two teens battle their way through a religious apocalypse on a mission to defeat the Antichrist.
Director(s): Paul Middleditch
Writer(s): Chris Matheson
Stars: Craig Robinson | Anna Kendrick | John Francis Daley | See full cast and crew
Cast: Craig Robinson | Anna Kendrick | John Francis Daley | Ana Gasteyer | John Michael Higgins | Jesse Camacho | Ken Jeong | Adrianna Costa | Darcy Michael
Format                                   : AVI
Format/Info                              : Audio Video Interleave
File size                                : 698 MiB
Duration                                 : 1h 24mn
Overall bit rate                         : 1 150 Kbps
Writing application                      : VirtualDubMod 1.5.4.1 (build 2178/release)
Writing library                          : VirtualDubMod build 2178/release

Video
ID                                       : 0
Format                                   : MPEG-4 Visual
Format profile                           : Advanced Simple@L5
Format settings, BVOP                    : 1
Format settings, QPel                    : No
Format settings, GMC                     : No warppoints
Format settings, Matrix                  : Custom
Codec ID                                 : XVID
Codec ID/Hint                            : XviD
Duration                                 : 1h 24mn
Bit rate                                 : 1 015 Kbps
Width                                    : 720 pixels
Height                                   : 304 pixels
Display aspect ratio                     : 2.35:1
Frame rate                               : 23.976 fps
Color space                              : YUV
Chroma subsampling                       : 4:2:0
Bit depth                                : 8 bits
Scan type                                : Progressive
Compression mode                         : Lossy
Bits/(Pixel*Frame)                       : 0.193
Stream size                              : 616 MiB (88%)
Writing library                          : XviD 1.2.1 (UTC 2008-12-04)

Audio
ID                                       : 1
Format                                   : MPEG Audio
Format version                           : Version 1
Format profile                           : Layer 3
Mode                                     : Joint stereo
Mode extension                           : MS Stereo
Codec ID                                 : 55
Codec ID/Hint                            : MP3
Duration                                 : 1h 24mn
Bit rate mode                            : Constant
Bit rate                                 : 128 Kbps
Channel(s)                               : 2 channels
Sampling rate                            : 48.0 KHz
Compression mode                         : Lossy
Stream size                              : 77.7 MiB (11%)
Alignment                                : Aligned on interleaves
Interleave, duration                     : 83 ms (2.00 video frames)
Interleave, preload duration             : 504 ms
Writing library                          : LAME3.98r

CAST
Craig Robinson , Anna Kendrick , John Francis Daley , Rob Corddry , Ana Gasteyer , John Michael Higgins , Calum Worthy , Jesse Camacho , Thomas Lennon ,
Ken Jeong , Bjorn Yearwood , Adrianna Costa , Mike O'Connell , Darcy Michael , Paul Scheer

PLOT
The rapture has happened and Lindsey (Anna Kendrick)| her boyfriend Ben (John Francis Daley)| and their families have been left behind| doomed to endure torture on
Earth. A former politician named Earl Gundy (Craig Robinson)| now known as The Beast| is the Anti-Christ. But when The Beast decides he wants to take Lindsey as his
wife| Lindsey and Ben most come up with a plan to defeat the Anti-Christ.