Lethal.Weapon.S02E02.CroSub.720p.HDTV.X264-DIMENSION

Klikni za povečavo!
13-10-2017 19:35 naložil
Sejalci: 1 / Odjemalci: 0 / Velikost: 1.11 GB / Dokončani: 11
Prenesi torrent Magnet Link Poročaj torrent Opis torrenta NFO
Zvrst: Akcija | Kriminalka
Kategorija: FILMI > WEBRip-720

Ocena :
Stars: Damon Wayans, Clayne Crawford, Keesha Sharp
Ime : Lethal Weapon
Sezona : 02
Leto : 2017
Jezik : angleški
Žanr : akcija kriminalka
Jezik : hrvaški
Prevod : kanda
Priredba: cYd
01. El Gringo Loco 26.09.2017
02. Dancing in September 03.10.2017
03. Born to Run 10.10.2017
04. Flight Risk 17.10.2017
05. Let it Ride
06. Gold Rush
07. Birdwatching
...
18. Finale sezone
Zabavna akcijska serija, ki je nastala na podlagi popularnih filmov Smrtonosno orožje, spremlja nenavaden detektivski par.
Martin Riggs je rahlo neuravnotežen policist, ki se ravno ne drži klasičnih načinov reševanja primerov. Kot partnerja ga dodelijo izkušenemu detektivu Rogerju Murtaughu, ki pa se trudi živeti čim manj stresno življenje. Kljub temu, da sta si popolnoma različna, se Riggs in Murtaugh dobro ujameta in s skupnimi močmi rešujeta zapletene primere.
rexy123 in bodo je to všeč.
Delite na socialnem omrežju
Ocena :
Stars: Damon Wayans, Clayne Crawford, Keesha Sharp
Ime : Lethal Weapon
Sezona : 02
Leto : 2017
Jezik : angleški
Žanr : akcija kriminalka
Jezik : hrvaški
Prevod : kanda
Priredba: cYd
01. El Gringo Loco 26.09.2017
02. Dancing in September 03.10.2017
03. Born to Run 10.10.2017
04. Flight Risk 17.10.2017
05. Let it Ride
06. Gold Rush
07. Birdwatching
...
18. Finale sezone
Zabavna akcijska serija, ki je nastala na podlagi popularnih filmov Smrtonosno orožje, spremlja nenavaden detektivski par.
Martin Riggs je rahlo neuravnotežen policist, ki se ravno ne drži klasičnih načinov reševanja primerov. Kot partnerja ga dodelijo izkušenemu detektivu Rogerju Murtaughu, ki pa se trudi živeti čim manj stresno življenje. Kljub temu, da sta si popolnoma različna, se Riggs in Murtaugh dobro ujameta in s skupnimi močmi rešujeta zapletene primere.
Trenutno še ni nobenega komentarja.
###.                               
                               .'------.' |         
                              | .-----. | |
                              | |     | | |
                            __| |     | | |;. _______________
                           /  |*`-----'.|.' `;              //
                          /   `---------' .;'              //
                    /|   /  .''''////////;'               //
                   |=|  .../ ######### /;/               //|
                   |/  /  / ######### //                //||
                      /   `-----------'                // ||
                     /________________________________//| ||
                     `-------------_--------------cyd-' | ||
                      : | ||      | || |______|| ||     | ||
                      : | ||      | ||         | ||     `""'
                      : | ||      `""'         | ||
                      : | ||                   | ||
                        | ||                   | ||
                        `""'                   `""'
General
Unique ID                      : 208901788300502467263690190998317136828 (0x9D29055D22E88A818816DD2D0D797BBC)
Complete name                  : Lethal.Weapon.S02E02.720p.HDTV.X264-DIMENSION.mkv
Format                         : Matroska
Format version                 : Version 2
File size                      : 1.11 GiB
Duration                       : 44 min 11 s
Overall bit rate               : 3 595 kb/s
Encoded date                   : UTC 2017-10-03 17:18:00
Writing application            : mkvmerge v3.1.0 ('Happy up here') built on Jan 19 2010 12:09:24
Writing library                : libebml v0.7.9 + libmatroska v0.8.1

Video
ID                             : 1
Format                         : AVC
Format/Info                    : Advanced Video Codec
Format profile                 : High@L4.1
Format settings, CABAC         : Yes
Format settings, RefFrames     : 8 frames
Codec ID                       : V_MPEG4/ISO/AVC
Duration                       : 44 min 11 s
Bit rate                       : 3 075 kb/s
Width                          : 1 280 pixels
Height                         : 720 pixels
Display aspect ratio           : 16:9
Frame rate mode                : Constant
Frame rate                     : 23.976 (24000/1001) FPS
Color space                    : YUV
Chroma subsampling             : 4:2:0
Bit depth                      : 8 bits
Scan type                      : Progressive
Bits/(Pixel*Frame)             : 0.139
Stream size                    : 972 MiB (86%)
Writing library                : x264 core 152 r2851 ba24899
Encoding settings              : cabac=1 / ref=8 / deblock=1:-2:-2 / analyse=0x3:0x113 / me=umh / subme=9 / psy=1 / psy_rd=1.00:0.00 / mixed_ref=1 / me_range=24 / chroma_me=1 / trellis=2 / 8x8dct=1 / cqm=0 / deadzone=21,11 / fast_pskip=0 / chroma_qp_offset=-2 / threads=12 / lookahead_threads=1 / sliced_threads=0 / nr=0 / decimate=1 / interlaced=0 / bluray_compat=0 / constrained_intra=0 / bframes=5 / b_pyramid=2 / b_adapt=1 / b_bias=0 / direct=3 / weightb=1 / open_gop=0 / weightp=2 / keyint=250 / keyint_min=23 / scenecut=40 / intra_refresh=0 / rc_lookahead=50 / rc=crf / mbtree=1 / crf=18.0 / qcomp=0.60 / qpmin=0 / qpmax=69 / qpstep=4 / ip_ratio=1.40 / aq=1:1.00
Language                       : English
Default                        : No
Forced                         : No

Audio
ID                             : 2
Format                         : AC-3
Format/Info                    : Audio Coding 3
Format settings, Endianness    : Big
Codec ID                       : A_AC3
Duration                       : 44 min 11 s
Bit rate mode                  : Constant
Bit rate                       : 448 kb/s
Channel(s)                     : 6 channels
Channel positions              : Front: L C R, Side: L R, LFE
Sampling rate                  : 48.0 kHz
Frame rate                     : 31.250 FPS (1536 SPF)
Bit depth                      : 16 bits
Compression mode               : Lossy
Stream size                    : 142 MiB (12%)
Service kind                   : Complete Main
Default                        : Yes
Forced                         : No