Božični MIX 2017 DJ VIHAR & DJ AJDA

Klikni za povečavo!
09-12-2017 14:31 naložil Ajda
Sejalci: 1 / Odjemalci: 0 / Velikost: 167.87 MB / Dokončani: 55
Prenesi torrent Poročaj torrent Opis torrenta NFO
Kategorija: GLASBA > Glasba




INFO :
Format : MPEG Audio
File size : 167 MiB
Duration : 1 h 12 min
Overall bit rate mode : Constant
Overall bit rate : 320 kb/s
Encoded by : Lavf52.39.0
Writing library : LAME3.98

Audio
Format : MPEG Audio
Format version : Version 1
Format profile : Layer 3
Mode : Joint stereo
Duration : 1 h 12 min
Bit rate mode : Constant
Bit rate : 320 kb/s
Channel(s) : 2 channels
Sampling rate : 48.0 kHz
Compression mode : Lossy
Stream size : 167 MiB (100%)
Writing library : LAME3.98


BOŽIČNI MIX 2017

01. Nejc Kastelic in Zborček - Božič je
02. Jasmin Stavros - Sretan božič ljubavi
03. Saša Lendero - Zimaj, božič za vse
04. Simona Weiss - Božične zvezdice
05. Begini - Sretan božič svakome
06. Črna Maćka - Dobri možje
07. Unikat - Najin božič
08. Modrijani - Sveta noč
09. Mladi Gamsi - Najina božična noč
10. Maja Oderlap - Vse zvezde iz neba
11. Leone - Tužan je božič bez tebe
12. Bepop - Glej, zvezdice božje
13. Oliver Dragojevič - Bijeli božič
14. Calypso - Božična pravljica
15. Lendero, Dežan, Hercog - Božič za vse ljudi
16. Saša Čuki - Božič je
17. Helena Blagne - V beli božični noči
18. Čuki Modrijani - Daj mi poljub
19. Rokn Band - Novo leto
20. Alfi Nipič - Silvesterski poljub


AWATAR, bugi70, kekec123 in 5 ostalim je to všeč.
Tagi za tale torrent: Božični mix 2017
Delite na socialnem omrežju



INFO :
Format : MPEG Audio
File size : 167 MiB
Duration : 1 h 12 min
Overall bit rate mode : Constant
Overall bit rate : 320 kb/s
Encoded by : Lavf52.39.0
Writing library : LAME3.98

Audio
Format : MPEG Audio
Format version : Version 1
Format profile : Layer 3
Mode : Joint stereo
Duration : 1 h 12 min
Bit rate mode : Constant
Bit rate : 320 kb/s
Channel(s) : 2 channels
Sampling rate : 48.0 kHz
Compression mode : Lossy
Stream size : 167 MiB (100%)
Writing library : LAME3.98


BOŽIČNI MIX 2017

01. Nejc Kastelic in Zborček - Božič je
02. Jasmin Stavros - Sretan božič ljubavi
03. Saša Lendero - Zimaj, božič za vse
04. Simona Weiss - Božične zvezdice
05. Begini - Sretan božič svakome
06. Črna Maćka - Dobri možje
07. Unikat - Najin božič
08. Modrijani - Sveta noč
09. Mladi Gamsi - Najina božična noč
10. Maja Oderlap - Vse zvezde iz neba
11. Leone - Tužan je božič bez tebe
12. Bepop - Glej, zvezdice božje
13. Oliver Dragojevič - Bijeli božič
14. Calypso - Božična pravljica
15. Lendero, Dežan, Hercog - Božič za vse ljudi
16. Saša Čuki - Božič je
17. Helena Blagne - V beli božični noči
18. Čuki Modrijani - Daj mi poljub
19. Rokn Band - Novo leto
20. Alfi Nipič - Silvesterski poljub


Trenutno še ni nobenega komentarja.
*******************************************************************************

                            \\\ ///

                           @/ _ _ \@

                          ( (o) (o) )

                      ==oOOO==(_)====OOOo====

                           ~ www.ViDEOTEKA.org ~

                    =========== Oooo.====
                                (   )
                    .oooO        ) / 
                    (   )       (_/
                     \ (          
                      \_)


*******************************************************************************
               ~ DJ VIHAR & DJ AJDA -  BO#I#NI MIX 2017 ~
*******************************************************************************

-------------------------------------------------------------------------------
                                Avdio podatki
-------------------------------------------------------------------------------
Format                                   : MPEG Audio
File size                                : 167 MiB
Duration                                 : 1 h 12 min
Overall bit rate mode                    : Constant
Overall bit rate                         : 320 kb/s
Encoded by                               : Lavf52.39.0
Writing library                          : LAME3.98

Audio
Format                                   : MPEG Audio
Format version                           : Version 1
Format profile                           : Layer 3
Mode                                     : Joint stereo
Duration                                 : 1 h 12 min
Bit rate mode                            : Constant
Bit rate                                 : 320 kb/s
Channel(s)                               : 2 channels
Sampling rate                            : 48.0 kHz
Compression mode                         : Lossy
Stream size                              : 167 MiB (100%)
Writing library                          : LAME3.98


BO#I#NI MIX 2017

01. Nejc Kastelic in Zbor#ek - Bo#i# je
02. Jasmin Stavros - Sretan bo#i# ljubavi
03. Sa#a Lendero - Zimaj, bo#i# za vse
04. Simona Weiss - Bo#i#ne zvezdice
05. Begini - Sretan bo#i# svakome
06. #rna Ma#ka - Dobri mo#je
07. Unikat - Najin bo#i#
08. Modrijani - Sveta no#
09. Mladi Gamsi - Najina bo#i#na no#
10. Maja Oderlap - Vse zvezde iz neba
11. Leone - Tu#an je bo#i# bez tebe
12. Bepop - Glej, zvezdice bo#je
13. Oliver Dragojevi# - Bijeli bo#i#
14. Calypso - Bo#i#na pravljica
15. Lendero, De#an, Hercog - Bo#i# za vse ljudi
16. Sa#a #uki - Bo#i# je
17. Helena Blagne - V beli bo#i#ni no#i
18. #uki Modrijani - Daj mi poljub
19. Rokn Band - Novo leto
20. Alfi Nipi# - Silvesterski poljub