DJ VIHAR & DJ AJDA - SLO & HR MIX 55

Klikni za povečavo!
28-12-2018 18:16 naložil Ajda
Sejalci: 1 / Odjemalci: 0 / Velikost: 233.04 MB / Dokončani: 71
Prenesi torrent Poročaj torrent Opis torrenta NFO
Kategorija: GLASBA > Glasba




-------------------------------------------------------------------------------
Avdio podatki
-------------------------------------------------------------------------------
DJ VIHAR & DJ AJDA - SLO & HR MIX 55
Format : MPEG Audio
File size : 232 MiB
Duration : 1h 41mn
Overall bit rate mode : Constant
Overall bit rate : 320 Kbps
Encoded by : Lavf52.39.0
Writing library : LAME3.98

Audio
Format : MPEG Audio
Format version : Version 1
Format profile : Layer 3
Mode : Joint stereo
Duration : 1h 41mn
Bit rate mode : Constant
Bit rate : 320 Kbps
Channel(s) : 2 channels
Sampling rate : 48.0 KHz
Compression mode : Lossy
Stream size : 232 MiB (100%)
Writing library : LAME3.98

VSEBINA :

01. ZDRAVKO ŠKENDER - Dao bih sve
02. DEJAN VUNJAK - Če mam pa tebe
03. STAVROS in BLAGNE - Dajem brdo zlata
04. MEJAŠI in LANA - Duplo slađe
05. TEQUILA - Lažu lažu sve
06. DRAŽEN ZEČIČ - Da mi daju carstvo
07. ANJA - Svjetla grada
08. BEGINI - Moja ljube
09. HALID BESLIĆ - Taman je
10. MANCA ŠPIK - Kjer pomol poljubi morje
11. DUŠKO LOKIN in STAVROS - Momačka večer
12. IVAN ZAK - Laku noč
13. IVANA KOVAČ - Biser s juga
14. BANE MOJIČEVIĆ - Ne ide vino bez harmonike
15. IVAN STAPIČ - Pozdravi je prijatelju moj
16. TRI MUŠKETIRA - Prijatelji zovite mi nju
17. ISAAC PALMA - Sreča moja si
18. ALYA - Dobro jutro življenje
19. ČUDEŽNI DEČKI - Črna žena
20. SKATER - Poka poka
21. LIDIJA BAČIĆ - 3 minute
22. DANIJELA in JOLE - Na granici
23. MARK ZEBRA - Fenomenalno
24. ČUKI in KVARTOPIRCI - Če se od spominov da živet
25. DUŠKO in SANJA - Moje srce više nema mira
26. GORAN KARAN - u 4 oka
27. LJUBAVNICI - Oko zeleno
28. NEDA UKRADEN - Kao vino i gitara
29. SKUPINA EROS - Šum na srcu
30. TARAPANA BAND - Neženja




Minister, AWATAR, HERMANZ in 11 ostalim je to všeč.
Tagi za tale torrent: Mix 55
Delite na socialnem omrežju



-------------------------------------------------------------------------------
Avdio podatki
-------------------------------------------------------------------------------
DJ VIHAR & DJ AJDA - SLO & HR MIX 55
Format : MPEG Audio
File size : 232 MiB
Duration : 1h 41mn
Overall bit rate mode : Constant
Overall bit rate : 320 Kbps
Encoded by : Lavf52.39.0
Writing library : LAME3.98

Audio
Format : MPEG Audio
Format version : Version 1
Format profile : Layer 3
Mode : Joint stereo
Duration : 1h 41mn
Bit rate mode : Constant
Bit rate : 320 Kbps
Channel(s) : 2 channels
Sampling rate : 48.0 KHz
Compression mode : Lossy
Stream size : 232 MiB (100%)
Writing library : LAME3.98

VSEBINA :

01. ZDRAVKO ŠKENDER - Dao bih sve
02. DEJAN VUNJAK - Če mam pa tebe
03. STAVROS in BLAGNE - Dajem brdo zlata
04. MEJAŠI in LANA - Duplo slađe
05. TEQUILA - Lažu lažu sve
06. DRAŽEN ZEČIČ - Da mi daju carstvo
07. ANJA - Svjetla grada
08. BEGINI - Moja ljube
09. HALID BESLIĆ - Taman je
10. MANCA ŠPIK - Kjer pomol poljubi morje
11. DUŠKO LOKIN in STAVROS - Momačka večer
12. IVAN ZAK - Laku noč
13. IVANA KOVAČ - Biser s juga
14. BANE MOJIČEVIĆ - Ne ide vino bez harmonike
15. IVAN STAPIČ - Pozdravi je prijatelju moj
16. TRI MUŠKETIRA - Prijatelji zovite mi nju
17. ISAAC PALMA - Sreča moja si
18. ALYA - Dobro jutro življenje
19. ČUDEŽNI DEČKI - Črna žena
20. SKATER - Poka poka
21. LIDIJA BAČIĆ - 3 minute
22. DANIJELA in JOLE - Na granici
23. MARK ZEBRA - Fenomenalno
24. ČUKI in KVARTOPIRCI - Če se od spominov da živet
25. DUŠKO in SANJA - Moje srce više nema mira
26. GORAN KARAN - u 4 oka
27. LJUBAVNICI - Oko zeleno
28. NEDA UKRADEN - Kao vino i gitara
29. SKUPINA EROS - Šum na srcu
30. TARAPANA BAND - Neženja




Trenutno še ni nobenega komentarja.
*******************************************************************************

                               \\\ ///

                           @/ _ _ \@

                            ( (o) (o) )

          ==oOOO==(_)====OOOo====

               ~ www.ViDEOTEKA.org ~

                    =========== Oooo.====
                                (   )
                    .oooO        ) / 
                    (   )       (_/
                     \ (          
                      \_)


*******************************************************************************
               ~ DJ VIHAR & DJ AJDA -  SLO & HR MIX 55 ~
*******************************************************************************

-------------------------------------------------------------------------------
                          Avdio  podatki
-------------------------------------------------------------------------------
DJ VIHAR & DJ AJDA -  SLO & HR MIX 55
Format                                   : MPEG Audio
File size                                : 232 MiB
Duration                                 : 1h 41mn
Overall bit rate mode                    : Constant
Overall bit rate                         : 320 Kbps
Encoded by                               : Lavf52.39.0
Writing library                          : LAME3.98

Audio
Format                                   : MPEG Audio
Format version                           : Version 1
Format profile                           : Layer 3
Mode                                     : Joint stereo
Duration                                 : 1h 41mn
Bit rate mode                            : Constant
Bit rate                                 : 320 Kbps
Channel(s)                               : 2 channels
Sampling rate                            : 48.0 KHz
Compression mode                         : Lossy
Stream size                              : 232 MiB (100%)
Writing library                          : LAME3.98


01. ZDRAVKO #KENDER - Dao bih sve
02. DEJAN VUNJAK - #e mam pa tebe
03. STAVROS in BLAGNE - Dajem brdo zlata
04. MEJA#I in LANA - Duplo sla#e
05. TEQUILA - La#u la#u sve
06. DRA#EN ZE#I# - Da mi daju carstvo
07. ANJA - Svjetla grada
08. BEGINI - Moja ljube
09. HALID BESLI# - Taman je
10. MANCA #PIK - Kjer pomol poljubi morje
11. DU#KO LOKIN in STAVROS - Moma#ka ve#er
12. IVAN ZAK - Laku no#
13. IVANA KOVA# - Biser s juga
14. BANE MOJI#EVI# - Ne ide vino bez harmonike
15. IVAN STAPI# - Pozdravi je prijatelju moj
16. TRI MU#KETIRA - Prijatelji zovite mi nju
17. ISAAC PALMA - Sre#a moja si
18. ALYA - Dobro jutro #ivljenje
19. #UDE#NI DE#KI - #rna #ena
20. SKATER - Poka poka
21. LIDIJA BA#I# - 3 minute
22. DANIJELA  in JOLE - Na granici 
23. MARK ZEBRA - Fenomenalno
24. #UKI in KVARTOPIRCI - #e se od spominov da #ivet
25. DU#KO in SANJA - Moje srce vi#e nema mira
26. GORAN KARAN - u 4 oka
27. LJUBAVNICI - Oko zeleno
28. NEDA UKRADEN  - Kao vino i gitara
29. SKUPINA EROS - #um na srcu
30. TARAPANA BAND - Ne#enja