Destroyer.2018.SrbSub.DVDSCR.XviD.AC3-EVO☺[cyd]

Klikni za povečavo!
17-03-2019 13:03 naložil System
Sejalci: 1 / Odjemalci: 0 / Velikost: 1.6 GB / Dokončani: 25
Prenesi torrent Poročaj torrent Opis torrenta NFO
Zvrst: Akcija | Drama | Kriminalka
Kategorija: FILMI > DVD
Anonimen nalagalec

———————————————————————————————————————————————————————————
IMDb info:
◎ Naslov:Destroyer
◎ Leto: 2019
◎ Zvrst: akcija kriminalka drama
◎ Jezik: angleški
◎ Ocena: ★★★★★★ (6,5)
◎ Povzetek:A police detective reconnects with people from an undercover assignment in her distant past in order to make peace.
———————————————————————————————————————————————————————————
YouTube URADNI NAPOVEDNIK:
———————————————————————————————————————————————————————————
PODNAPISI:
◎ Jezik : srbski latinica [vstavljeni / softcoded / multiplexed]
———————————————————————————————————————————————————————————
VIR:
◎ Source:
Destroyer.2019.DVDSCR.XviD.AC3-EVO.avi
◎ After coding:
Destroyer.2019.SrbSub.DVDSCR.XviD.AC3-EVO☺[cyd].mkv (AAC)
———————————————————————————————————————————————————————————
NFO in slike se nahajajo v zato ustreznih zavihkih.
synysa, eva in Qmen je to všeč.
Delite na socialnem omrežju
———————————————————————————————————————————————————————————
IMDb info:
◎ Naslov:Destroyer
◎ Leto: 2019
◎ Zvrst: akcija kriminalka drama
◎ Jezik: angleški
◎ Ocena: ★★★★★★ (6,5)
◎ Povzetek:A police detective reconnects with people from an undercover assignment in her distant past in order to make peace.
———————————————————————————————————————————————————————————
YouTube URADNI NAPOVEDNIK:
———————————————————————————————————————————————————————————
PODNAPISI:
◎ Jezik : srbski latinica [vstavljeni / softcoded / multiplexed]
———————————————————————————————————————————————————————————
VIR:
◎ Source:
Destroyer.2019.DVDSCR.XviD.AC3-EVO.avi
◎ After coding:
Destroyer.2019.SrbSub.DVDSCR.XviD.AC3-EVO☺[cyd].mkv (AAC)
———————————————————————————————————————————————————————————
NFO in slike se nahajajo v zato ustreznih zavihkih.
Trenutno še ni nobenega komentarja.
###.
.                                          .""--.._
                                           []      `'--.._
                                           ||__           `'-,
                                         `)||_ ```'--..       \
                     _                    /|//}        ``--._  |
                  .'` `'.                /////}              `\/
                 /  .""".\              //{///
                /  /_  _`\\            // `||
                | |(_)(_)||          _//   ||
                | |  /\  )|        _///\   ||
                | |L====J |       / |/ |   ||
               /  /'-..-' /    .'`  \  |   ||
              /   |  :: | |_.-`      |  \  ||
             /|   `\-::.| |          \   | ||
           /` `|   /    | |          |   / ||
         |`    \   |    / /          \  |  ||
        |       `\_|    |/      ,.__. \ |  ||
        /                     /`    `\ ||  ||
       |           .         /        \||  ||
       |                     |         |/  ||
       /         /           |         (   ||
      /          .           /          )  ||
 ------------------------------------------------------------------
|                    Reaper                                        |
 ------------------------------------------------------------------
General
Complete name                  : Destroyer.2018.SrbSub.DVDSCR.XviD.AC3-EVO###[cyd].mkv
Format                         : Matroska
Format version                 : Version 4
File size                      : 1.60 GiB
Duration                       : 2 h 0 min
Overall bit rate               : 1 891 kb/s
Encoded date                   : UTC 2019-03-17 11:47:18
Writing application            : mkvmerge v22.0.0 ('At The End Of The World') 64-bit
Writing library                : libebml v1.3.5 + libmatroska v1.4.8

Video
ID                             : 1
Format                         : MPEG-4 Visual
Format profile                 : Simple@L3
Format settings, BVOP          : No
Format settings, QPel          : No
Format settings, GMC           : No warppoints
Format settings, Matrix        : Default (H.263)
Codec ID                       : V_MS/VFW/FOURCC / XVID
Codec ID/Hint                  : XviD
Duration                       : 2 h 0 min
Bit rate                       : 1 442 kb/s
Width                          : 720 pixels
Height                         : 304 pixels
Display aspect ratio           : 2.35:1
Frame rate mode                : Constant
Frame rate                     : 23.976 (24000/1001) FPS
Color space                    : YUV
Chroma subsampling             : 4:2:0
Bit depth                      : 8 bits
Scan type                      : Progressive
Compression mode               : Lossy
Bits/(Pixel*Frame)             : 0.275
Stream size                    : 1.22 GiB (76%)
Writing library                : XviD 1.1.2 (UTC 2006-11-01)
Language                       : Serbian
Default                        : Yes
Forced                         : No

Audio
ID                             : 2
Format                         : AC-3
Format/Info                    : Audio Coding 3
Commercial name                : Dolby Digital
Codec ID                       : A_AC3
Duration                       : 2 h 0 min
Bit rate mode                  : Constant
Bit rate                       : 448 kb/s
Channel(s)                     : 6 channels
Channel layout                 : L R C LFE Ls Rs
Sampling rate                  : 48.0 kHz
Frame rate                     : 31.250 FPS (1536 SPF)
Bit depth                      : 16 bits
Compression mode               : Lossy
Stream size                    : 387 MiB (24%)
Language                       : English
Service kind                   : Complete Main
Default                        : Yes
Forced                         : No

Subtitle
ID                             : 3
Format                         : UTF-8
Codec ID                       : S_TEXT/UTF8
Codec ID/Info                  : UTF-8 Plain Text
Duration                       : 1 h 52 min
Bit rate                       : 35 b/s
Count of elements              : 1132
Stream size                    : 29.3 KiB (0%)
Language                       : Serbian
Default                        : Yes
Forced                         : No