Little.Pink.House.2017.SrbSub.720p.WEB.x265.AAC-[cyd]

Klikni za povečavo!
07-07-2019 11:18 naložil
Sejalci: 1 / Odjemalci: 0 / Velikost: 687.64 MB / Dokončani: 1
Prenesi torrent Magnet Link Poročaj torrent Opis torrenta NFO
Zvrst: Drama
Kategorija: FILMI > WEBRip-720

———————————————————————————————————————————————————————————
IMDb info:
◎ Naslov:LITTTLE PINK HOUSE
◎ Leto: 2017
◎ Zvrst: drama
◎ Jezik: angleški
◎ Ocena: ★★★★★★★ (6,5)
◎ Stars:
◎ Povzetek: A small-town nurse named Susette Kelo emerges as the reluctant leader of her working-class neighbors in their struggle to save their homes from political and corporate interests bent on ...
———————————————————————————————————————————————————————————
YouTube URADNI NAPOVEDNIK:
———————————————————————————————————————————————————————————
PODNAPISI:
◎ Jezik : srbski latinica [vstavljeni / softcoded / multiplexed]
———————————————————————————————————————————————————————————
VIR:
◎ Source:
Little.Pink.House.2017.720p.WEB-DL.2CH.x265.HEVC-PSA.mkv
◎ After coding:
Little.Pink.House.2017.SrbSub.720p.WEB.x265.AAC-[cyd].mkv
———————————————————————————————————————————————————————————
Bistvena prednost HEVC (H265) je varčnost, saj za enako kakovost slike porabimo do 50'% manj prostora.
Da pa tehnologija bliskovito napreduje dokazuje naslednik HEVC imenovan AV1 kateri porabi še dodatnih do 30% manj prostora pri isti kvaliteti slike.
———————————————————————————————————————————————————————————
rexy123 je to všeč
Delite na socialnem omrežju
———————————————————————————————————————————————————————————
IMDb info:
◎ Naslov:LITTTLE PINK HOUSE
◎ Leto: 2017
◎ Zvrst: drama
◎ Jezik: angleški
◎ Ocena: ★★★★★★★ (6,5)
◎ Stars:
◎ Povzetek: A small-town nurse named Susette Kelo emerges as the reluctant leader of her working-class neighbors in their struggle to save their homes from political and corporate interests bent on ...
———————————————————————————————————————————————————————————
YouTube URADNI NAPOVEDNIK:
———————————————————————————————————————————————————————————
PODNAPISI:
◎ Jezik : srbski latinica [vstavljeni / softcoded / multiplexed]
———————————————————————————————————————————————————————————
VIR:
◎ Source:
Little.Pink.House.2017.720p.WEB-DL.2CH.x265.HEVC-PSA.mkv
◎ After coding:
Little.Pink.House.2017.SrbSub.720p.WEB.x265.AAC-[cyd].mkv
———————————————————————————————————————————————————————————
Bistvena prednost HEVC (H265) je varčnost, saj za enako kakovost slike porabimo do 50'% manj prostora.
Da pa tehnologija bliskovito napreduje dokazuje naslednik HEVC imenovan AV1 kateri porabi še dodatnih do 30% manj prostora pri isti kvaliteti slike.
———————————————————————————————————————————————————————————
Trenutno še ni nobenega komentarja.
###.
.                                          .""--.._
                                           []      `'--.._
                                           ||__           `'-,
                                         `)||_ ```'--..       \
                     _                    /|//}        ``--._  |
                  .'` `'.                /////}              `\/
                 /  .""".\              //{///
                /  /_  _`\\            // `||
                | |(_)(_)||          _//   ||
                | |  /\  )|        _///\   ||
                | |L====J |       / |/ |   ||
               /  /'-..-' /    .'`  \  |   ||
              /   |  :: | |_.-`      |  \  ||
             /|   `\-::.| |          \   | ||
           /` `|   /    | |          |   / ||
         |`    \   |    / /          \  |  ||
        |       `\_|    |/      ,.__. \ |  ||
        /                     /`    `\ ||  ||
       |           .         /        \||  ||
       |                     |         |/  ||
       /         /           |         (   ||
      /          .           /          )  ||
 ------------------------------------------------------------------
|                    Reaper                                        |
 ------------------------------------------------------------------
General
Complete name                  : Little.Pink.House.2017.SrbSub.720p.WEB.x265.AAC-[cyd].mkv
Format                         : Matroska
Format version                 : Version 4
File size                      : 687 MiB
Duration                       : 1 h 39 min
Overall bit rate               : 968 kb/s
Movie name                     : PSArips.com | Little.Pink.House.2017.720p.WEB-DL.2CH.x265.HEVC-PSA
Encoded date                   : UTC 2019-07-07 10:13:47
Writing application            : mkvmerge v22.0.0 ('At The End Of The World') 64-bit
Writing library                : libebml v1.3.5 + libmatroska v1.4.8

Video
ID                             : 1
Format                         : HEVC
Format/Info                    : High Efficiency Video Coding
Format profile                 : Main@L3.1@Main
Codec ID                       : V_MPEGH/ISO/HEVC
Duration                       : 1 h 39 min
Bit rate                       : 899 kb/s
Width                          : 1 280 pixels
Height                         : 720 pixels
Display aspect ratio           : 16:9
Frame rate mode                : Constant
Frame rate                     : 23.976 (24000/1001) FPS
Color space                    : YUV
Chroma subsampling             : 4:2:0
Bit depth                      : 8 bits
Bits/(Pixel*Frame)             : 0.041
Stream size                    : 638 MiB (93%)
Language                       : English
Default                        : Yes
Forced                         : No

Audio
ID                             : 2
Format                         : AAC LC SBR
Format/Info                    : Advanced Audio Codec Low Complexity with Spectral Band Replication
Commercial name                : HE-AAC
Format settings                : Explicit
Codec ID                       : A_AAC-2
Duration                       : 1 h 39 min
Bit rate                       : 66.2 kb/s
Channel(s)                     : 2 channels
Channel layout                 : L R
Sampling rate                  : 48.0 kHz
Frame rate                     : 23.438 FPS (2048 SPF)
Compression mode               : Lossy
Delay relative to video        : 23 ms
Stream size                    : 47.5 MiB (7%)
Language                       : English
Default                        : Yes
Forced                         : No

Text
ID                             : 3
Format                         : UTF-8
Codec ID                       : S_TEXT/UTF8
Codec ID/Info                  : UTF-8 Plain Text
Duration                       : 1 h 34 min
Bit rate                       : 61 b/s
Count of elements              : 1054
Stream size                    : 42.4 KiB (0%)
Title                          : Prevod: adm1r
Language                       : Serbian
Default                        : Yes
Forced                         : Yes