Long.Shot.2019.SrbSub.1080p.BluRay.x264.AAC-[cyd]

Klikni za povečavo!
29-07-2019 19:42 naložil System
Sejalci: 1 / Odjemalci: 0 / Velikost: 2.38 GB / Dokončani: 36
Prenesi torrent Magnet Link Poročaj torrent Opis torrenta NFO
Kategorija: FILMI > BluRay-1080
Anonimen nalagalec

———————————————————————————————————————————————————————————
IMDb info:
◎ Naslov: Zapelji me, če me moreš (Long Shot)
◎ Leto: 2019
◎ Zvrst: komedija romanca
◎ Jezik: angleški
◎ Ocena: ★★★★★★★ (7,1)
◎ Stars:
◎ Povzetek: Fred Flarsky, brezposelni novinar, prizadet in uničen od lastne nesreče, se odloči, da bo osvojil Charlotte Field, njegovo simpatijo iz otroštva, ki je danes ena najmočnejših in nedosegljivih žensk na planetu. On je politični novinar, s talentom za vse, kar prinaša težave. Ona je najboljša diplomatka v državi s talentom za … pravzaprav karkoli. Ko se Fred (Seth Rogen) odloči, da se bo ponovno zbližal s srednješolsko simpatijo (Charlize Theron), jo navduši s humorjem in mladostniškim idealizmom. Žal pa lahko njegova brezskrbnost uniči njeno kariero pot, ki je tik pred pomembno prelomnico.
Vir: kolosej.si
———————————————————————————————————————————————————————————
YouTube URADNI NAPOVEDNIK:
———————————————————————————————————————————————————————————
PODNAPISI:
◎ Jezik : srbski latinica [vstavljeni / softcoded / multiplexed]
———————————————————————————————————————————————————————————
VIR:
◎ Source:
Long.Shot.2019.1080p.BluRay.H264.AAC-RARBG.mp4
◎ After coding:
Long.Shot.2019.SrbSub.1080p.BluRay.x264.AAC-[cyd].mkv
———————————————————————————————————————————————————————————
rexy123, kekec973, eva in 2 ostalim je to všeč.
Delite na socialnem omrežju
———————————————————————————————————————————————————————————
IMDb info:
◎ Naslov: Zapelji me, če me moreš (Long Shot)
◎ Leto: 2019
◎ Zvrst: komedija romanca
◎ Jezik: angleški
◎ Ocena: ★★★★★★★ (7,1)
◎ Stars:
◎ Povzetek: Fred Flarsky, brezposelni novinar, prizadet in uničen od lastne nesreče, se odloči, da bo osvojil Charlotte Field, njegovo simpatijo iz otroštva, ki je danes ena najmočnejših in nedosegljivih žensk na planetu. On je politični novinar, s talentom za vse, kar prinaša težave. Ona je najboljša diplomatka v državi s talentom za … pravzaprav karkoli. Ko se Fred (Seth Rogen) odloči, da se bo ponovno zbližal s srednješolsko simpatijo (Charlize Theron), jo navduši s humorjem in mladostniškim idealizmom. Žal pa lahko njegova brezskrbnost uniči njeno kariero pot, ki je tik pred pomembno prelomnico.
Vir: kolosej.si
———————————————————————————————————————————————————————————
YouTube URADNI NAPOVEDNIK:
———————————————————————————————————————————————————————————
PODNAPISI:
◎ Jezik : srbski latinica [vstavljeni / softcoded / multiplexed]
———————————————————————————————————————————————————————————
VIR:
◎ Source:
Long.Shot.2019.1080p.BluRay.H264.AAC-RARBG.mp4
◎ After coding:
Long.Shot.2019.SrbSub.1080p.BluRay.x264.AAC-[cyd].mkv
———————————————————————————————————————————————————————————
Trenutno še ni nobenega komentarja.
###.
.                                          .""--.._
                                           []      `'--.._
                                           ||__           `'-,
                                         `)||_ ```'--..       \
                     _                    /|//}        ``--._  |
                  .'` `'.                /////}              `\/
                 /  .""".\              //{///
                /  /_  _`\\            // `||
                | |(_)(_)||          _//   ||
                | |  /\  )|        _///\   ||
                | |L====J |       / |/ |   ||
               /  /'-..-' /    .'`  \  |   ||
              /   |  :: | |_.-`      |  \  ||
             /|   `\-::.| |          \   | ||
           /` `|   /    | |          |   / ||
         |`    \   |    / /          \  |  ||
        |       `\_|    |/      ,.__. \ |  ||
        /                     /`    `\ ||  ||
       |           .         /        \||  ||
       |                     |         |/  ||
       /         /           |         (   ||
      /          .           /          )  ||
 ------------------------------------------------------------------
|                    Reaper                                        |
 ------------------------------------------------------------------
General
Complete name               : Long.Shot.2019.SrbSub.1080p.BluRay.x264.AAC-[cyd].mkv
Format                         : Matroska
Format version                 : Version 4
File size                      : 2.38 GiB
Duration                       : 2 h 4 min
Overall bit rate               : 2 725 kb/s
Encoded date                   : UTC 2019-07-29 18:32:22
Writing application            : mkvmerge v22.0.0 ('At The End Of The World') 64-bit
Writing library                : libebml v1.3.5 + libmatroska v1.4.8

Video
ID                             : 1
Format                         : AVC
Format/Info                    : Advanced Video Codec
Format profile                 : High@L4.1
Format settings                : CABAC / 4 Ref Frames
Format settings, CABAC         : Yes
Format settings, ReFrames      : 4 frames
Codec ID                       : V_MPEG4/ISO/AVC
Duration                       : 2 h 4 min
Bit rate                       : 2 500 kb/s
Width                          : 1 920 pixels
Height                         : 808 pixels
Display aspect ratio           : 2.40:1
Frame rate mode                : Constant
Frame rate                     : 23.976 (23976/1000) FPS
Color space                    : YUV
Chroma subsampling             : 4:2:0
Bit depth                      : 8 bits
Scan type                      : Progressive
Bits/(Pixel*Frame)             : 0.067
Stream size                    : 2.18 GiB (92%)
Writing library                : x264 core 152 r2851M ba24899
Language                       : English
Default                        : Yes
Forced                         : No

Audio
ID                             : 2
Format                         : AAC LC
Format/Info                    : Advanced Audio Codec Low Complexity
Codec ID                       : A_AAC-2
Duration                       : 2 h 4 min
Bit rate                       : 224 kb/s
Channel(s)                     : 6 channels
Channel layout                 : C L R Ls Rs LFE
Sampling rate                  : 48.0 kHz
Frame rate                     : 46.875 FPS (1024 SPF)
Compression mode               : Lossy
Delay relative to video        : -43 ms
Stream size                    : 200 MiB (8%)
Language                       : English
Default                        : Yes
Forced                         : No

Text
ID                             : 3
Format                         : UTF-8
Codec ID                       : S_TEXT/UTF8
Codec ID/Info                  : UTF-8 Plain Text
Duration                       : 1 h 55 min
Bit rate                       : 94 b/s
Count of elements              : 2574
Stream size                    : 79.8 KiB (0%)
Title                          : latin
Language                       : Serbian
Default                        : Yes
Forced                         : Yes