Godzilla.II.2019.SrbSub.Blurred.1080p.x264.ACC-[cyd]

Klikni za povečavo!
30-07-2019 15:38 naložil System
Sejalci: 1 / Odjemalci: 0 / Velikost: 5.63 GB / Dokončani: 34
Prenesi torrent Magnet Link Poročaj torrent Opis torrenta NFO
Zvrst: Akcija | Pustolovski | Z.F.
Kategorija:
Anonimen nalagalec

———————————————————————————————————————————————————————————
IMDb info:
◎ Naslov: Godzila II: Kralj pošasti (Godzilla: King of the Monsters)
◎ Leto: 2019
◎ Zvrst: akcija pustolovski ZF
◎ Jezik: angleški
◎ Ocena: ★★★★★★★ (6,5)
◎ Stars:
◎ Povzetek: Starodavne pošasti, za katere so mnogi mislili, da so samo miti, se ponovno dvigajo. In ne le to - intenzivno si prizadevajo za prevlado nad človeštvom. Vprašanje j, ali je soobstoj pošasti in ljudi sploh možen in zdi se, da je človeška vrsta močno ogrožena. Kriptozoološka agencija Monarch se sooča z množico uničujočih pošasti, vključno z mogočnim Godzilo, ki se spopade z Mothro, Rodanom in njegovim končnim nasprotnikom, triglavim kraljem Ghidorahom.
Vir: kolosej.si
———————————————————————————————————————————————————————————
YouTube URADNI NAPOVEDNIK:
———————————————————————————————————————————————————————————
PODNAPISI:
◎ Jezik : srbski latinica [vstavljeni / softcoded / multiplexed]
———————————————————————————————————————————————————————————
VIR:
◎ Source:
Godzilla - King of the Monsters 2019 Blurred 1080p x264.AC3 2.0 - crisgsm33.mp4
◎ After coding:
Godzilla.King.of.the.Monsters.2019.SrbSub.Blurred.1080p.x264.AAC-[cyd].mkv
———————————————————————————————————————————————————————————
Marjetka33, bodo, martin1954 in 1 ostalim je to všeč.
Delite na socialnem omrežju
———————————————————————————————————————————————————————————
IMDb info:
◎ Naslov: Godzila II: Kralj pošasti (Godzilla: King of the Monsters)
◎ Leto: 2019
◎ Zvrst: akcija pustolovski ZF
◎ Jezik: angleški
◎ Ocena: ★★★★★★★ (6,5)
◎ Stars:
◎ Povzetek: Starodavne pošasti, za katere so mnogi mislili, da so samo miti, se ponovno dvigajo. In ne le to - intenzivno si prizadevajo za prevlado nad človeštvom. Vprašanje j, ali je soobstoj pošasti in ljudi sploh možen in zdi se, da je človeška vrsta močno ogrožena. Kriptozoološka agencija Monarch se sooča z množico uničujočih pošasti, vključno z mogočnim Godzilo, ki se spopade z Mothro, Rodanom in njegovim končnim nasprotnikom, triglavim kraljem Ghidorahom.
Vir: kolosej.si
———————————————————————————————————————————————————————————
YouTube URADNI NAPOVEDNIK:
———————————————————————————————————————————————————————————
PODNAPISI:
◎ Jezik : srbski latinica [vstavljeni / softcoded / multiplexed]
———————————————————————————————————————————————————————————
VIR:
◎ Source:
Godzilla - King of the Monsters 2019 Blurred 1080p x264.AC3 2.0 - crisgsm33.mp4
◎ After coding:
Godzilla.King.of.the.Monsters.2019.SrbSub.Blurred.1080p.x264.AAC-[cyd].mkv
———————————————————————————————————————————————————————————
Trenutno še ni nobenega komentarja.
###.
.                                          .""--.._
                                           []      `'--.._
                                           ||__           `'-,
                                         `)||_ ```'--..       \
                     _                    /|//}        ``--._  |
                  .'` `'.                /////}              `\/
                 /  .""".\              //{///
                /  /_  _`\\            // `||
                | |(_)(_)||          _//   ||
                | |  /\  )|        _///\   ||
                | |L====J |       / |/ |   ||
               /  /'-..-' /    .'`  \  |   ||
              /   |  :: | |_.-`      |  \  ||
             /|   `\-::.| |          \   | ||
           /` `|   /    | |          |   / ||
         |`    \   |    / /          \  |  ||
        |       `\_|    |/      ,.__. \ |  ||
        /                     /`    `\ ||  ||
       |           .         /        \||  ||
       |                     |         |/  ||
       /         /           |         (   ||
      /          .           /          )  ||
 ------------------------------------------------------------------
|                    Reaper                                        |
 ------------------------------------------------------------------
General
Complete name: Godzilla.King.of.the.Monsters.2019.SrbSub.Blurred.1080p.x264.AAC-[cyd]
Format                         : Matroska
Format version                 : Version 4
File size                      : 5.63 GiB
Duration                       : 2 h 11 min
Overall bit rate               : 6 122 kb/s
Encoded date                   : UTC 2019-07-30 14:22:12
Writing application            : mkvmerge v22.0.0 ('At The End Of The World') 64-bit
Writing library                : libebml v1.3.5 + libmatroska v1.4.8 / Lavf57.71.100

Video
ID                             : 1
Format                         : AVC
Format/Info                    : Advanced Video Codec
Format profile                 : High@L4
Format settings                : CABAC / 5 Ref Frames
Format settings, CABAC         : Yes
Format settings, ReFrames      : 5 frames
Codec ID                       : V_MPEG4/ISO/AVC
Duration                       : 2 h 11 min
Bit rate                       : 6 000 kb/s
Width                          : 1 980 pixels
Height                         : 816 pixels
Display aspect ratio           : 2.40:1
Frame rate mode                : Constant
Frame rate                     : 29.970 (30000/1001) FPS
Color space                    : YUV
Chroma subsampling             : 4:2:0
Bit depth                      : 8 bits
Scan type                      : Progressive
Bits/(Pixel*Frame)             : 0.124
Stream size                    : 5.51 GiB (98%)
Writing library                : x264 core 157 r2935M 545de2f
Language                       : English
Default                        : Yes
Forced                         : No
Color range                    : Limited
Matrix coefficients            : BT.470 System B/G

Audio
ID                             : 2
Format                         : AAC LC
Format/Info                    : Advanced Audio Codec Low Complexity
Codec ID                       : A_AAC-2
Duration                       : 2 h 11 min
Bit rate                       : 129 kb/s
Channel(s)                     : 2 channels
Channel layout                 : L R
Sampling rate                  : 48.0 kHz
Frame rate                     : 46.875 FPS (1024 SPF)
Compression mode               : Lossy
Delay relative to video        : -234 ms
Stream size                    : 121 MiB (2%)
Language                       : English
Default                        : Yes
Forced                         : No

Text
ID                             : 3
Format                         : UTF-8
Codec ID                       : S_TEXT/UTF8
Codec ID/Info                  : UTF-8 Plain Text
Duration                       : 2 h 10 min
Bit rate                       : 43 b/s
Count of elements              : 858
Stream size                    : 41.8 KiB (0%)
Title                          : Prevod:x200sx
Language                       : Serbian
Default                        : Yes
Forced                         : Yes