Tolkien.2019.SrbSub.1080p.WEB.x264-[cyd]

Klikni za povečavo!
06-08-2019 20:04 naložil System
Sejalci: 1 / Odjemalci: 1 / Velikost: 2.14 GB / Dokončani: 5
Prenesi torrent Poročaj torrent Opis torrenta NFO
Zvrst: Biografija | Drama | Vojni
Kategorija: FILMI > WEBRip-1080
Anonimen nalagalec

———————————————————————————————————————————————————————————
IMDb info:
◎ Naslov: Tolkien
◎ Leto: 2019
◎ Zvrst: biografski drama vojni
◎ Jezik: angleški
◎ Ocena: ★★★★★★★ (6,9)
◎ Stars:
◎ Povzetek: The formative years of the orphaned author J.R.R. Tolkien as he finds friendship, love and artistic inspiration among a group of fellow outcasts at school.
———————————————————————————————————————————————————————————
YouTube URADNI NAPOVEDNIK:
———————————————————————————————————————————————————————————
PODNAPISI:
◎ Jezik : srbski latinica [vstavljeni / softcoded / multiplexed]
———————————————————————————————————————————————————————————
VIR:
◎ Source:
Tolkien.2019.1080p.WEBRip.x264-RARBG.mp4
◎ After coding:
Tolkien.2019.SrbSub.1080p.WEB.x264-[cyd].mkv
———————————————————————————————————————————————————————————
martin1954 in Ziva je to všeč.
Delite na socialnem omrežju
———————————————————————————————————————————————————————————
IMDb info:
◎ Naslov: Tolkien
◎ Leto: 2019
◎ Zvrst: biografski drama vojni
◎ Jezik: angleški
◎ Ocena: ★★★★★★★ (6,9)
◎ Stars:
◎ Povzetek: The formative years of the orphaned author J.R.R. Tolkien as he finds friendship, love and artistic inspiration among a group of fellow outcasts at school.
———————————————————————————————————————————————————————————
YouTube URADNI NAPOVEDNIK:
———————————————————————————————————————————————————————————
PODNAPISI:
◎ Jezik : srbski latinica [vstavljeni / softcoded / multiplexed]
———————————————————————————————————————————————————————————
VIR:
◎ Source:
Tolkien.2019.1080p.WEBRip.x264-RARBG.mp4
◎ After coding:
Tolkien.2019.SrbSub.1080p.WEB.x264-[cyd].mkv
———————————————————————————————————————————————————————————
Trenutno še ni nobenega komentarja.
###.
.                                          .""--.._
                                           []      `'--.._
                                           ||__           `'-,
                                         `)||_ ```'--..       \
                     _                    /|//}        ``--._  |
                  .'` `'.                /////}              `\/
                 /  .""".\              //{///
                /  /_  _`\\            // `||
                | |(_)(_)||          _//   ||
                | |  /\  )|        _///\   ||
                | |L====J |       / |/ |   ||
               /  /'-..-' /    .'`  \  |   ||
              /   |  :: | |_.-`      |  \  ||
             /|   `\-::.| |          \   | ||
           /` `|   /    | |          |   / ||
         |`    \   |    / /          \  |  ||
        |       `\_|    |/      ,.__. \ |  ||
        /                     /`    `\ ||  ||
       |           .         /        \||  ||
       |                     |         |/  ||
       /         /           |         (   ||
      /          .           /          )  ||
 ------------------------------------------------------------------
|                    Reaper                                        |
 ------------------------------------------------------------------
General
Complete name                  : Tolkien.2019.SrbSub.1080p.WEB.x264-[cyd].mkv
Format                         : Matroska
Format version                 : Version 4
File size                      : 2.13 GiB
Duration                       : 1 h 51 min
Overall bit rate               : 2 724 kb/s
Encoded date                   : UTC 2019-08-06 18:41:38
Writing application            : mkvmerge v22.0.0 ('At The End Of The World') 64-bit
Writing library                : libebml v1.3.5 + libmatroska v1.4.8

Video
ID                             : 1
Format                         : AVC
Format/Info                    : Advanced Video Codec
Format profile                 : High@L4.1
Format settings                : CABAC / 4 Ref Frames
Format settings, CABAC         : Yes
Format settings, ReFrames      : 4 frames
Codec ID                       : V_MPEG4/ISO/AVC
Duration                       : 1 h 51 min
Bit rate                       : 2 500 kb/s
Width                          : 1 920 pixels
Height                         : 802 pixels
Display aspect ratio           : 2.40:1
Frame rate mode                : Constant
Frame rate                     : 23.976 (23976/1000) FPS
Color space                    : YUV
Chroma subsampling             : 4:2:0
Bit depth                      : 8 bits
Scan type                      : Progressive
Bits/(Pixel*Frame)             : 0.068
Stream size                    : 1.95 GiB (92%)
Writing library                : x264 core 152 r2851M ba24899
Language                       : English
Default                        : Yes
Forced                         : No

Audio
ID                             : 2
Format                         : AAC LC
Format/Info                    : Advanced Audio Codec Low Complexity
Codec ID                       : A_AAC-2
Duration                       : 1 h 51 min
Bit rate                       : 224 kb/s
Channel(s)                     : 6 channels
Channel layout                 : C L R Ls Rs LFE
Sampling rate                  : 48.0 kHz
Frame rate                     : 46.875 FPS (1024 SPF)
Compression mode               : Lossy
Delay relative to video        : -43 ms
Stream size                    : 179 MiB (8%)
Language                       : English
Default                        : Yes
Forced                         : No

Text
ID                             : 3
Format                         : UTF-8
Codec ID                       : S_TEXT/UTF8
Codec ID/Info                  : UTF-8 Plain Text
Duration                       : 1 h 50 min
Bit rate                       : 53 b/s
Count of elements              : 1350
Stream size                    : 43.1 KiB (0%)
Title                          : latin
Language                       : Serbian
Default                        : Yes
Forced                         : Yes