T-34.2018.SloSub.1080p.WEB.x264-[cyd]

Klikni za povečavo!
10-08-2019 19:50 naložil System
Sejalci: 1 / Odjemalci: 0 / Velikost: 2.21 GB / Dokončani: 21
Prenesi torrent Magnet Link Poročaj torrent Opis torrenta NFO
Zvrst: Akcija | Vojni
Kategorija:
Anonimen nalagalec

———————————————————————————————————————————————————————————
IMDb info:
◎ Naslov:T-34
◎ Leto: 2018
◎ Zvrst: akcija vojni
◎ Jezik: angleški
◎ Ocena: ★★★★★★ (6,3)
◎ Stars:
◎ Povzetek: Film se dogaja v času druge svetovne vojne, osredotočen pa je na boj dveh tankistov, mladega Ivuškina, ki je še do včeraj bil kadet, in nemškega asa Jägerja. Mladi sovjetski tankist v svojem T-34 izzove Nemca in njegove Panterje.
———————————————————————————————————————————————————————————
YouTube URADNI NAPOVEDNIK:
———————————————————————————————————————————————————————————
PODNAPISI:
◎ Jezik : slovenski [vstavljeni / softcoded / multiplexed]
———————————————————————————————————————————————————————————
VIR:
◎ Source:
T-34.2018.1080p.WEBRip.x264-[YTS.AM].mp4
◎ After coding:
T-34.2018.SloSub.1080p.WEB.x264-[cyd].mkv
———————————————————————————————————————————————————————————
Minister, duki64 in Ziva je to všeč.
Delite na socialnem omrežju
———————————————————————————————————————————————————————————
IMDb info:
◎ Naslov:T-34
◎ Leto: 2018
◎ Zvrst: akcija vojni
◎ Jezik: angleški
◎ Ocena: ★★★★★★ (6,3)
◎ Stars:
◎ Povzetek: Film se dogaja v času druge svetovne vojne, osredotočen pa je na boj dveh tankistov, mladega Ivuškina, ki je še do včeraj bil kadet, in nemškega asa Jägerja. Mladi sovjetski tankist v svojem T-34 izzove Nemca in njegove Panterje.
———————————————————————————————————————————————————————————
YouTube URADNI NAPOVEDNIK:
———————————————————————————————————————————————————————————
PODNAPISI:
◎ Jezik : slovenski [vstavljeni / softcoded / multiplexed]
———————————————————————————————————————————————————————————
VIR:
◎ Source:
T-34.2018.1080p.WEBRip.x264-[YTS.AM].mp4
◎ After coding:
T-34.2018.SloSub.1080p.WEB.x264-[cyd].mkv
———————————————————————————————————————————————————————————
Trenutno še ni nobenega komentarja.
###.
.                                          .""--.._
                                           []      `'--.._
                                           ||__           `'-,
                                         `)||_ ```'--..       \
                     _                    /|//}        ``--._  |
                  .'` `'.                /////}              `\/
                 /  .""".\              //{///
                /  /_  _`\\            // `||
                | |(_)(_)||          _//   ||
                | |  /\  )|        _///\   ||
                | |L====J |       / |/ |   ||
               /  /'-..-' /    .'`  \  |   ||
              /   |  :: | |_.-`      |  \  ||
             /|   `\-::.| |          \   | ||
           /` `|   /    | |          |   / ||
         |`    \   |    / /          \  |  ||
        |       `\_|    |/      ,.__. \ |  ||
        /                     /`    `\ ||  ||
       |           .         /        \||  ||
       |                     |         |/  ||
       /         /           |         (   ||
      /          .           /          )  ||
 ------------------------------------------------------------------
|                    Reaper                                        |
 ------------------------------------------------------------------
General
Complete name                  : T-34.2018.SloSub.1080p.WEB.x264-[cyd].mkv
Format                         : Matroska
Format version                 : Version 4
File size                      : 2.21 GiB
Duration                       : 2 h 19 min
Overall bit rate               : 2 276 kb/s
Encoded date                   : UTC 2019-08-10 18:45:47
Writing application            : mkvmerge v22.0.0 ('At The End Of The World') 64-bit
Writing library                : libebml v1.3.5 + libmatroska v1.4.8

Video
ID                             : 1
Format                         : AVC
Format/Info                    : Advanced Video Codec
Format profile                 : High@L4.1
Format settings                : CABAC / 4 Ref Frames
Format settings, CABAC         : Yes
Format settings, ReFrames      : 4 frames
Codec ID                       : V_MPEG4/ISO/AVC
Duration                       : 2 h 19 min
Bit rate                       : 2 150 kb/s
Width                          : 1 920 pixels
Height                         : 800 pixels
Display aspect ratio           : 2.40:1
Frame rate mode                : Constant
Frame rate                     : 30.000 FPS
Color space                    : YUV
Chroma subsampling             : 4:2:0
Bit depth                      : 8 bits
Scan type                      : Progressive
Bits/(Pixel*Frame)             : 0.047
Stream size                    : 2.09 GiB (94%)
Writing library                : x264 core 157
Language                       : English
Default                        : Yes
Forced                         : No

Audio
ID                             : 2
Format                         : AAC LC
Format/Info                    : Advanced Audio Codec Low Complexity
Codec ID                       : A_AAC-2
Duration                       : 2 h 19 min
Bit rate                       : 124 kb/s
Channel(s)                     : 2 channels
Channel layout                 : L R
Sampling rate                  : 44.1 kHz
Frame rate                     : 43.066 FPS (1024 SPF)
Compression mode               : Lossy
Delay relative to video        : -46 ms
Stream size                    : 124 MiB (5%)
Language                       : English
Default                        : Yes
Forced                         : No

Text
ID                             : 3
Format                         : UTF-8
Codec ID                       : S_TEXT/UTF8
Codec ID/Info                  : UTF-8 Plain Text
Duration                       : 2 h 9 min
Bit rate                       : 23 b/s
Count of elements              : 849
Stream size                    : 22.2 KiB (0%)
Title                          : Prevedel: mtine
Language                       : Slovenian
Default                        : Yes
Forced                         : Yes