DJ VIHAR & DJ AJDA - SLO & HR MIX 56

Klikni za povečavo!
09-09-2019 18:22 naložil System
Sejalci: 1 / Odjemalci: 0 / Velikost: 167.41 MB / Dokončani: 42
Prenesi torrent Poročaj torrent Opis torrenta NFO
Kategorija: GLASBA > Glasba
Anonimen nalagalec





-------------------------------------------------------------------------------
Avdio podatki
-------------------------------------------------------------------------------
DJ VIHAR & DJ AJDA - SLO & HR MIX 56
Format : MPEG Audio
File size : 167 MiB
Duration : 1h 12mn
Overall bit rate mode : Constant
Overall bit rate : 320 Kbps
Encoded by : Lavf52.39.0
Writing library : LAME3.98

Audio
Format : MPEG Audio
Format version : Version 1
Format profile : Layer 3
Mode : Joint stereo
Duration : 1h 12mn
Bit rate mode : Constant
Bit rate : 320 Kbps
Channel(s) : 2 channels
Sampling rate : 48.0 KHz
Compression mode : Lossy
Stream size : 167 MiB (100%)
Writing library : LAME3.98

VSEBINA:

01. IVANA KOVAČ - Za mene
02. JASMIN STAVROS/PIŠTEK/NAVIHANKE - Angel in hudič
03. NEDA UKRADEN - Najteže je kad se rastaje
04. SKUPINA CALYPSO - Mala barka
05. ŠARMERI - Usne boje vina
06. ALEN VOGRINEC VESEL - Prijatelju moj
07. JASMIN STAVROS - Na planini
08. MEJAŠI - Blago nama
09. KUMOVI - Rajna
10. NATAŠA MADJAR - Pa si mi rekel
11. TEQUILA - Vanilija
12. DOMEN KUMER - Najboljše vino
13. LUKA BASI / MARKO ŠKUGOR - Ružo bila
14. MARK ZEBRA - Marina
15. LJUBAVNICI - Jedna jedina
16. MARIO ROSO - Kaplja vina
17. NINA DONELI / TARAPANA BAND - Genijalno
18. DRAŽEN ZEČIČ - Sve je zbog nje
19. DANIJELA MARTINOVIČ - Kao prekjučer
20. MATE BULIČ / TARAPANA BAND - Ja sam nate ponosan
21. KVARTOPIRCI - Ti si zame čokolada



AWATAR, HERMANZ, Minister in 6 ostalim je to všeč.
Delite na socialnem omrežju




-------------------------------------------------------------------------------
Avdio podatki
-------------------------------------------------------------------------------
DJ VIHAR & DJ AJDA - SLO & HR MIX 56
Format : MPEG Audio
File size : 167 MiB
Duration : 1h 12mn
Overall bit rate mode : Constant
Overall bit rate : 320 Kbps
Encoded by : Lavf52.39.0
Writing library : LAME3.98

Audio
Format : MPEG Audio
Format version : Version 1
Format profile : Layer 3
Mode : Joint stereo
Duration : 1h 12mn
Bit rate mode : Constant
Bit rate : 320 Kbps
Channel(s) : 2 channels
Sampling rate : 48.0 KHz
Compression mode : Lossy
Stream size : 167 MiB (100%)
Writing library : LAME3.98

VSEBINA:

01. IVANA KOVAČ - Za mene
02. JASMIN STAVROS/PIŠTEK/NAVIHANKE - Angel in hudič
03. NEDA UKRADEN - Najteže je kad se rastaje
04. SKUPINA CALYPSO - Mala barka
05. ŠARMERI - Usne boje vina
06. ALEN VOGRINEC VESEL - Prijatelju moj
07. JASMIN STAVROS - Na planini
08. MEJAŠI - Blago nama
09. KUMOVI - Rajna
10. NATAŠA MADJAR - Pa si mi rekel
11. TEQUILA - Vanilija
12. DOMEN KUMER - Najboljše vino
13. LUKA BASI / MARKO ŠKUGOR - Ružo bila
14. MARK ZEBRA - Marina
15. LJUBAVNICI - Jedna jedina
16. MARIO ROSO - Kaplja vina
17. NINA DONELI / TARAPANA BAND - Genijalno
18. DRAŽEN ZEČIČ - Sve je zbog nje
19. DANIJELA MARTINOVIČ - Kao prekjučer
20. MATE BULIČ / TARAPANA BAND - Ja sam nate ponosan
21. KVARTOPIRCI - Ti si zame čokolada



Trenutno še ni nobenega komentarja.
*******************************************************************************

                               \\\ ///

                           @/ _ _ \@

                            ( (o) (o) )

          ==oOOO==(_)====OOOo====

               ~ www.ViDEOTEKA.org ~

                    =========== Oooo.====
                                (   )
                    .oooO        ) / 
                    (   )       (_/
                     \ (          
                      \_)


*******************************************************************************
               ~ DJ VIHAR & DJ AJDA -  SLO & HR MIX 56 ~
*******************************************************************************

-------------------------------------------------------------------------------
                          Avdio  podatki
-------------------------------------------------------------------------------
DJ VIHAR & DJ AJDA -  SLO & HR MIX 56
Format                                   : MPEG Audio
File size                                : 167 MiB
Duration                                 : 1h 12mn
Overall bit rate mode                    : Constant
Overall bit rate                         : 320 Kbps
Encoded by                               : Lavf52.39.0
Writing library                          : LAME3.98

Audio
Format                                   : MPEG Audio
Format version                           : Version 1
Format profile                           : Layer 3
Mode                                     : Joint stereo
Duration                                 : 1h 12mn
Bit rate mode                            : Constant
Bit rate                                 : 320 Kbps
Channel(s)                               : 2 channels
Sampling rate                            : 48.0 KHz
Compression mode                         : Lossy
Stream size                              : 167 MiB (100%)
Writing library                          : LAME3.98

01. IVANA KOVA# - Za mene
02. JASMIN STAVROS/PI#TEK/NAVIHANKE - Angel in hudi#
03. NEDA UKRADEN - Najte#e je kad se rastaje
04. SKUPINA CALYPSO - Mala barka
05. #ARMERI - Usne boje vina
06. ALEN VOGRINEC VESEL - Prijatelju moj
07. JASMIN STAVROS -  Na planini
08. MEJA#I - Blago nama
09. KUMOVI - Rajna
10. NATA#A MADJAR - Pa si mi rekel
11. TEQUILA - Vanilija
12. DOMEN KUMER - Najbolj#e vino
13. LUKA BASI / MARKO #KUGOR - Ru#o bila
14. MARK ZEBRA - Marina
15. LJUBAVNICI - Jedna jedina
16. MARIO ROSO - Kaplja vina
17. NINA DONELI / TARAPANA BAND - Genijalno
18. DRA#EN ZE#I# - Sve je zbog nje
19. DANIJELA MARTINOVI# - Kao prekju#er
20. MATE BULI# / TARAPANA BAND - Ja sam nate ponosan
21. KVARTOPIRCI - Ti si zame #okolada