Spider-Man.Far.From.Home.2019.SrbSub.1080p.HDRip.X264.AAC-[cyd]

Klikni za povečavo!
12-09-2019 10:21 naložil
Sejalci: 1 / Odjemalci: 0 / Velikost: 3.51 GB / Dokončani: 34
Prenesi torrent Poročaj torrent Opis torrenta NFO
Zvrst: Akcija | Pustolovski | Z.F.
Kategorija: FILMI > HDRip

———————————————————————————————————————————————————————————
IMDb info:
◎ Naslov:Spider-Man:Daleč od doma-Spider-Man: Far from Home(original title)
◎ Leto: 2019
◎ Zvrst: akcija pustolovski ZF
◎ Jezik: angleški
◎ Ocena: ★★★★★★★★ (7,9)
◎ Stars:

◎ Povzetek: Spider-Man se vrača po manj kot enoletnem premoru - tokrat ga bomo srečali na evropskih tleh. Peter Parker se namreč skupaj s prijatelji odpravi na šolski izlet v Evropo. Čeprav načrtuje, da si bo zgolj ogledoval znamenitosti Benetk, Londona in Pariza, se dogodki obrnejo povsem drugače - njegov oddih prekine nevarni Mysterio. Še dobro, da je v kovčku tudi njegova Spider-Man preobleka.
Vir: kolosej.si
———————————————————————————————————————————————————————————
YouTube URADNI NAPOVEDNIK:
———————————————————————————————————————————————————————————
PODNAPISI:
◎ Jezik : srbski latinica [vstavljeni / softcoded / multiplexed]
———————————————————————————————————————————————————————————
VIR:
◎ Source:
Spider-Man Far from Home.2019.1080p.HDRip.X264.AC3-EVO.mp4
◎ After coding:
Spider-Man.Far.From.Home.2019.SrbSub.1080p.HDRip.X264.AAC-[cyd].mkv
———————————————————————————————————————————————————————————
ViHaR, eva, Ziva in 1 ostalim je to všeč.
Delite na socialnem omrežju
———————————————————————————————————————————————————————————
IMDb info:
◎ Naslov:Spider-Man:Daleč od doma-Spider-Man: Far from Home(original title)
◎ Leto: 2019
◎ Zvrst: akcija pustolovski ZF
◎ Jezik: angleški
◎ Ocena: ★★★★★★★★ (7,9)
◎ Stars:

◎ Povzetek: Spider-Man se vrača po manj kot enoletnem premoru - tokrat ga bomo srečali na evropskih tleh. Peter Parker se namreč skupaj s prijatelji odpravi na šolski izlet v Evropo. Čeprav načrtuje, da si bo zgolj ogledoval znamenitosti Benetk, Londona in Pariza, se dogodki obrnejo povsem drugače - njegov oddih prekine nevarni Mysterio. Še dobro, da je v kovčku tudi njegova Spider-Man preobleka.
Vir: kolosej.si
———————————————————————————————————————————————————————————
YouTube URADNI NAPOVEDNIK:
———————————————————————————————————————————————————————————
PODNAPISI:
◎ Jezik : srbski latinica [vstavljeni / softcoded / multiplexed]
———————————————————————————————————————————————————————————
VIR:
◎ Source:
Spider-Man Far from Home.2019.1080p.HDRip.X264.AC3-EVO.mp4
◎ After coding:
Spider-Man.Far.From.Home.2019.SrbSub.1080p.HDRip.X264.AAC-[cyd].mkv
———————————————————————————————————————————————————————————
Trenutno še ni nobenega komentarja.
###.
.                                          .""--.._
                                           []      `'--.._
                                           ||__           `'-,
                                         `)||_ ```'--..       \
                     _                    /|//}        ``--._  |
                  .'` `'.                /////}              `\/
                 /  .""".\              //{///
                /  /_  _`\\            // `||
                | |(_)(_)||          _//   ||
                | |  /\  )|        _///\   ||
                | |L====J |       / |/ |   ||
               /  /'-..-' /    .'`  \  |   ||
              /   |  :: | |_.-`      |  \  ||
             /|   `\-::.| |          \   | ||
           /` `|   /    | |          |   / ||
         |`    \   |    / /          \  |  ||
        |       `\_|    |/      ,.__. \ |  ||
        /                     /`    `\ ||  ||
       |           .         /        \||  ||
       |                     |         |/  ||
       /         /           |         (   ||
      /          .           /          )  ||
 ------------------------------------------------------------------
|                    Reaper                                        |
 ------------------------------------------------------------------
General
Complete name                  : Spider-Man.Far.From.Home.2019.SrbSub.1080p.HDRip.X264.AAC-[cyd].mkv
Format                         : Matroska
Format version                 : Version 4
File size                      : 3.51 GiB
Duration                       : 2 h 8 min
Overall bit rate               : 3 905 kb/s
Encoded date                   : UTC 2019-09-12 09:14:24
Writing application            : mkvmerge v22.0.0 ('At The End Of The World') 64-bit
Writing library                : libebml v1.3.5 + libmatroska v1.4.8 / Lavf57.71.100

Video
ID                             : 1
Format                         : AVC
Format/Info                    : Advanced Video Codec
Format profile                 : High@L4.2
Format settings                : CABAC / 4 Ref Frames
Format settings, CABAC         : Yes
Format settings, ReFrames      : 4 frames
Codec ID                       : V_MPEG4/ISO/AVC
Duration                       : 2 h 8 min
Bit rate                       : 3 771 kb/s
Nominal bit rate               : 4 200 kb/s
Width                          : 1 920 pixels
Height                         : 804 pixels
Display aspect ratio           : 2.40:1
Frame rate mode                : Variable
Frame rate                     : 59.940 (59940/1000) FPS
Original frame rate            : 66.667 FPS
Color space                    : YUV
Chroma subsampling             : 4:2:0
Bit depth                      : 8 bits
Scan type                      : Progressive
Bits/(Pixel*Frame)             : 0.041
Stream size                    : 3.39 GiB (97%)
Writing library                : x264 core 152 r2854 e9a5903

Encoding settings              : cabac=1 / ref=3 / deblock=1:0:0 / analyse=0x3:0x133 / me=hex / 
subme=7 / psy=1 / psy_rd=1.00:0.00 / mixed_ref=1 / me_range=16 / chroma_me=1 / trellis=1 / 
8x8dct=1 / cqm=0 / deadzone=21,11 / fast_pskip=1 / chroma_qp_offset=-2 / threads=24 / 
lookahead_threads=4 / sliced_threads=0 / nr=0 / decimate=1 / interlaced=0 / bluray_compat=0 / 
constrained_intra=0 / bframes=3 / b_pyramid=2 / b_adapt=1 / b_bias=0 / direct=1 / weightb=1 / 
open_gop=0 / weightp=2 / keyint=250 / keyint_min=25 / scenecut=40 / intra_refresh=0 / 
rc_lookahead=40 / rc=abr / mbtree=1 / bitrate=4200 / ratetol=1.0 / qcomp=0.60 / qpmin=10 / 
qpmax=51 / qpstep=4 / ip_ratio=1.40 / aq=1:1.00

Language                       : English
Default                        : Yes
Forced                         : No

Audio
ID                             : 2
Format                         : AAC LC
Format/Info                    : Advanced Audio Codec Low Complexity
Codec ID                       : A_AAC-2
Duration                       : 2 h 8 min
Bit rate                       : 132 kb/s
Channel(s)                     : 2 channels
Channel layout                 : L R
Sampling rate                  : 48.0 kHz
Frame rate                     : 46.875 FPS (1024 SPF)
Compression mode               : Lossy
Delay relative to video        : -952 ms
Stream size                    : 120 MiB (3%)
Language                       : man
Default                        : Yes
Forced                         : No

Subtitle
ID                             : 3
Format                         : UTF-8
Codec ID                       : S_TEXT/UTF8
Codec ID/Info                  : UTF-8 Plain Text
Duration                       : 2 h 8 min
Bit rate                       : 54 b/s
Count of elements              : 1256
Stream size                    : 51.1 KiB (0%)
Title                          : latin
Language                       : Serbian
Default                        : Yes
Forced                         : Yes