DJ VIHAR & DJ AJDA - SLO & HR MIX 57

Klikni za povečavo!
14-09-2019 11:14 naložil Ajda
Sejalci: 1 / Odjemalci: 0 / Velikost: 166.94 MB / Dokončani: 47
Prenesi torrent Poročaj torrent Opis torrenta NFO
Kategorija: GLASBA > Glasba




-------------------------------------------------------------------------------
Avdio podatki
-------------------------------------------------------------------------------
Complete name : DJ VIHAR & DJ AJDA - SLO & HR MIX 57
Format : MPEG Audio
File size : 166 MiB
Duration : 1h 12mn
Overall bit rate mode : Constant
Overall bit rate : 320 Kbps
Encoded by : Lavf52.39.0
Writing library : LAME3.98

Audio
Format : MPEG Audio
Format version : Version 1
Format profile : Layer 3
Mode : Joint stereo
Duration : 1h 12mn
Bit rate mode : Constant
Bit rate : 320 Kbps
Channel(s) : 2 channels
Sampling rate : 48.0 KHz
Compression mode : Lossy
Stream size : 166 MiB (100%)
Writing library : LAME3.98


01. SKUPINA ZAKA PA NE - Atmosfera
02. ŽELJKO BEBEK - 100 sam dana pio
03. ZVITA FELTNA - Zate
04. JOLE - Godišnjica
05. DANIJEL POPOVIČ - Hej lane moje
06. CECILIJA - Mangup
07. VIGOR /Feat ISSAC PALMA - Šatori
08. KLAPA PUNTAMIKA - Noč punog meseca
09. SAŠA LENDERO / DOMEN KUMER - 100%
10. ALYA -Sedam dana na moru
11. ARRIVA - Moje petke
12 . IVICA ŠEPERIČ / JASMIN STAVROS - Pravi dalmatinac
13. IVANA KOVAČ - Ti
14. DEJAN VUNJAK - Čist majčken
15. MEJAŠI - Ja još mogu
16. THE FRAJLE - Nočas si moje vino
17. MARKO ŠKUGOR - Kako te jubim ja
18. ZVITA FELTNA - Gin in tonic
19. DAVID RICOV - Adio pape, adio mama
20. NON STOP / JASMIN STAVROS - Tutta forza
21. DOMEN KUMER - Prva runda


AWATAR, martin77, HERMANZ in 8 ostalim je to všeč.
Delite na socialnem omrežju



-------------------------------------------------------------------------------
Avdio podatki
-------------------------------------------------------------------------------
Complete name : DJ VIHAR & DJ AJDA - SLO & HR MIX 57
Format : MPEG Audio
File size : 166 MiB
Duration : 1h 12mn
Overall bit rate mode : Constant
Overall bit rate : 320 Kbps
Encoded by : Lavf52.39.0
Writing library : LAME3.98

Audio
Format : MPEG Audio
Format version : Version 1
Format profile : Layer 3
Mode : Joint stereo
Duration : 1h 12mn
Bit rate mode : Constant
Bit rate : 320 Kbps
Channel(s) : 2 channels
Sampling rate : 48.0 KHz
Compression mode : Lossy
Stream size : 166 MiB (100%)
Writing library : LAME3.98


01. SKUPINA ZAKA PA NE - Atmosfera
02. ŽELJKO BEBEK - 100 sam dana pio
03. ZVITA FELTNA - Zate
04. JOLE - Godišnjica
05. DANIJEL POPOVIČ - Hej lane moje
06. CECILIJA - Mangup
07. VIGOR /Feat ISSAC PALMA - Šatori
08. KLAPA PUNTAMIKA - Noč punog meseca
09. SAŠA LENDERO / DOMEN KUMER - 100%
10. ALYA -Sedam dana na moru
11. ARRIVA - Moje petke
12 . IVICA ŠEPERIČ / JASMIN STAVROS - Pravi dalmatinac
13. IVANA KOVAČ - Ti
14. DEJAN VUNJAK - Čist majčken
15. MEJAŠI - Ja još mogu
16. THE FRAJLE - Nočas si moje vino
17. MARKO ŠKUGOR - Kako te jubim ja
18. ZVITA FELTNA - Gin in tonic
19. DAVID RICOV - Adio pape, adio mama
20. NON STOP / JASMIN STAVROS - Tutta forza
21. DOMEN KUMER - Prva runda


Trenutno še ni nobenega komentarja.
*******************************************************************************

                               \\\ ///

                           @/ _ _ \@

                            ( (o) (o) )

          ==oOOO==(_)====OOOo====

               ~ www.ViDEOTEKA.org ~

                    =========== Oooo.====
                                (   )
                    .oooO        ) / 
                    (   )       (_/
                     \ (          
                      \_)


*******************************************************************************
               ~ DJ VIHAR & DJ AJDA -  SLO & HR MIX 57 ~
*******************************************************************************

-------------------------------------------------------------------------------
                          Avdio  podatki
-------------------------------------------------------------------------------
Complete name                      : DJ VIHAR & DJ AJDA -  SLO & HR MIX 57
Format                                   : MPEG Audio
File size                                : 166 MiB
Duration                                 : 1h 12mn
Overall bit rate mode                    : Constant
Overall bit rate                         : 320 Kbps
Encoded by                               : Lavf52.39.0
Writing library                          : LAME3.98

Audio
Format                                   : MPEG Audio
Format version                           : Version 1
Format profile                           : Layer 3
Mode                                     : Joint stereo
Duration                                 : 1h 12mn
Bit rate mode                            : Constant
Bit rate                                 : 320 Kbps
Channel(s)                               : 2 channels
Sampling rate                            : 48.0 KHz
Compression mode                         : Lossy
Stream size                              : 166 MiB (100%)
Writing library                          : LAME3.98


01. SKUPINA ZAKA PA NE - Atmosfera
02. ##ELJKO BEBEK - 100 sam dana pio
03. ZVITA FELTNA  - Zate
04. JOLE - Godi##njica
05. DANIJEL POPOVI## - Hej lane moje
06. CECILIJA - Mangup
07. VIGOR /Feat ISSAC PALMA -  ##atori
08. KLAPA PUNTAMIKA - No## punog meseca
09. SA##A LENDERO / DOMEN KUMER - 100%
10. ALYA -Sedam dana na moru
11. ARRIVA - Moje petke
12 . IVICA ##EPERI## / JASMIN STAVROS - Pravi dalmatinac
13. IVANA KOVA## - Ti
14. DEJAN VUNJAK - ##ist maj##ken
15. MEJA##I - Ja jo## mogu
16. THE FRAJLE - No##as si moje vino
17. MARKO ##KUGOR - Kako te jubim ja
18. ZVITA FELTNA  - Gin in tonic
19. DAVID RICOV - Adio pape, adio mama
20. NON STOP / JASMIN STAVROS - Tutta forza
21. DOMEN KUMER - Prva runda