Pain.and.Glory.2019.SrbSub.1080p.BRRip.x264-[cyd]

Klikni za povečavo!
09-11-2019 15:04 naložil
Sejalci: 1 / Odjemalci: 0 / Velikost: 2.5 GB / Dokončani: 6
Prenesi torrent Magnet Link Poročaj torrent Opis torrenta NFO
Zvrst: Drama
Kategorija: FILMI > BRRip

——————————————————————————————————————————————————————————————————
IMDb info:
◎ Naslov: Bolečina in slava-Dolor y gloria (Pain and Glory)
◎ Leto: 2019
◎ Zvrst: drama
◎ Jezik: angleški
◎ Ocena: 7,7
◎ Stars: Antonio Banderas, Asier Etxeandia, Leonardo Sbaraglia
◎ Povzetek: Film Bolečina in slava je sestavljen iz "serije srečanj" Salvadorja Malla, filmskega režiserja v jeseni svojega življenja. Nekatera od teh se odvijajo v sedanjosti, drugih se spominja. Denimo otroštva v šestdesetih, ko je s starši v iskanju boljšega življenja odšel v vas v bližini Valencie. Ali pa prvega poželenja, svoje prve ljubezni v Madridu v osemdesetih, bolečine ob razhodu, ko je bila ljubezen še sveža in vroča, pisanja kot edinega zdravila, da pozabiš to, česar se ne da pozabiti, odkritja kina in občutka neizmerne praznine, ki se pojavi iz nemoči še naprej ustvarjati filme. Film Bolečina in slava govori o ustvarjanju, o tem, kako težko je ustvarjanje ločiti od lastnega življenja, in o strasteh, ki dajejo smisel in upanje. Salvador med odkrivanjem svoje preteklosti najde potrebo po tem, da jo opiše. In v tem najde tudi svojo odrešitev.
———————————————————————————————————————————————————————————
YouTube URADNI NAPOVEDNIK:
——————————————————————————————————————————————————————————————————
PODNAPISI:
◎ Jezik : srbski latinica [vstavljeni / softcoded / multiplexed]
——————————————————————————————————————————————————————————————————
VIR:
◎ Source:
Pain.and.Glory.2019.1080p.BRRip.x264.AC3.HORiZON-ArtSubs.mp4
◎ After coding:
Pain.and.Glory.2019.SrbSub.1080p.BRRip.x264-[cyd].mkv
——————————————————————————————————————————————————————————————————
tapsanji je to všeč
Delite na socialnem omrežju
——————————————————————————————————————————————————————————————————
IMDb info:
◎ Naslov: Bolečina in slava-Dolor y gloria (Pain and Glory)
◎ Leto: 2019
◎ Zvrst: drama
◎ Jezik: angleški
◎ Ocena: 7,7
◎ Stars: Antonio Banderas, Asier Etxeandia, Leonardo Sbaraglia
◎ Povzetek: Film Bolečina in slava je sestavljen iz "serije srečanj" Salvadorja Malla, filmskega režiserja v jeseni svojega življenja. Nekatera od teh se odvijajo v sedanjosti, drugih se spominja. Denimo otroštva v šestdesetih, ko je s starši v iskanju boljšega življenja odšel v vas v bližini Valencie. Ali pa prvega poželenja, svoje prve ljubezni v Madridu v osemdesetih, bolečine ob razhodu, ko je bila ljubezen še sveža in vroča, pisanja kot edinega zdravila, da pozabiš to, česar se ne da pozabiti, odkritja kina in občutka neizmerne praznine, ki se pojavi iz nemoči še naprej ustvarjati filme. Film Bolečina in slava govori o ustvarjanju, o tem, kako težko je ustvarjanje ločiti od lastnega življenja, in o strasteh, ki dajejo smisel in upanje. Salvador med odkrivanjem svoje preteklosti najde potrebo po tem, da jo opiše. In v tem najde tudi svojo odrešitev.
———————————————————————————————————————————————————————————
YouTube URADNI NAPOVEDNIK:
——————————————————————————————————————————————————————————————————
PODNAPISI:
◎ Jezik : srbski latinica [vstavljeni / softcoded / multiplexed]
——————————————————————————————————————————————————————————————————
VIR:
◎ Source:
Pain.and.Glory.2019.1080p.BRRip.x264.AC3.HORiZON-ArtSubs.mp4
◎ After coding:
Pain.and.Glory.2019.SrbSub.1080p.BRRip.x264-[cyd].mkv
——————————————————————————————————————————————————————————————————
Trenutno še ni nobenega komentarja.
###.
.                                          .""--.._
                                           []      `'--.._
                                           ||__           `'-,
                                         `)||_ ```'--..       \
                     _                    /|//}        ``--._  |
                  .'` `'.                /////}              `\/
                 /  .""".\              //{///
                /  /_  _`\\            // `||
                | |(_)(_)||          _//   ||
                | |  /\  )|        _///\   ||
                | |L====J |       / |/ |   ||
               /  /'-..-' /    .'`  \  |   ||
              /   |  :: | |_.-`      |  \  ||
             /|   `\-::.| |          \   | ||
           /` `|   /    | |          |   / ||
         |`    \   |    / /          \  |  ||
        |       `\_|    |/      ,.__. \ |  ||
        /                     /`    `\ ||  ||
       |           .         /        \||  ||
       |                     |         |/  ||
       /         /           |         (   ||
      /          .           /          )  ||
 ------------------------------------------------------------------
|                    Reaper                                        |
 ------------------------------------------------------------------
General
Complete name                  : Pain.and.Glory.2019.SrbSub.1080p.BRRip.x264-[cyd].mkv
Format                         : Matroska
Format version                 : Version 4
File size                      : 2.50 GiB
Duration                       : 1 h 53 min
Overall bit rate               : 3 147 kb/s
Movie name                     : Pedro Almod##var - Dolor y gloria ('Pain and Glory') (2019)
Encoded date                   : UTC 2019-11-09 13:58:35 / UTC 2019-08-11T22:31:51Z
Writing application            : mkvmerge v22.0.0 ('At The End Of The World') 64-bit
Writing library                : libebml v1.3.5 + libmatroska v1.4.8 / Lavf57.7.2

Video
ID                             : 1
Format                         : AVC
Format/Info                    : Advanced Video Codec
Format profile                 : High@L4.1
Format settings                : CABAC / 4 Ref Frames
Format settings, CABAC         : Yes
Format settings, ReFrames      : 4 frames
Codec ID                       : V_MPEG4/ISO/AVC
Duration                       : 1 h 53 min
Bit rate                       : 2 700 kb/s
Width                          : 1 920 pixels
Height                         : 1 038 pixels
Display aspect ratio           : 1.85:1
Frame rate mode                : Constant
Frame rate                     : 24.000 FPS
Color space                    : YUV
Chroma subsampling             : 4:2:0
Bit depth                      : 8 bits
Scan type                      : Progressive
Bits/(Pixel*Frame)             : 0.056
Stream size                    : 2.14 GiB (86%)
Writing library                : x264 core 155 r2901 7d0ff22
Language                       : English
Default                        : Yes
Forced                         : No
Color range                    : Limited
Color primaries                : BT.709
Transfer characteristics       : BT.709
Matrix coefficients            : BT.709

Audio
ID                             : 2
Format                         : AC-3
Format/Info                    : Audio Coding 3
Commercial name                : Dolby Digital
Codec ID                       : A_AC3
Duration                       : 1 h 53 min
Bit rate mode                  : Constant
Bit rate                       : 448 kb/s
Channel(s)                     : 6 channels
Channel layout                 : L R C LFE Ls Rs
Sampling rate                  : 48.0 kHz
Frame rate                     : 31.250 FPS (1536 SPF)
Bit depth                      : 16 bits
Compression mode               : Lossy
Stream size                    : 363 MiB (14%)
Title                          : Surround
Language                       : Spanish
Service kind                   : Complete Main
Default                        : Yes
Forced                         : No

Text
ID                             : 3
Format                         : UTF-8
Codec ID                       : S_TEXT/UTF8
Codec ID/Info                  : UTF-8 Plain Text
Duration                       : 1 h 46 min
Bit rate                       : 57 b/s
Count of elements              : 1439
Stream size                    : 44.6 KiB (0%)
Title                          : latin
Language                       : Serbian
Default                        : Yes
Forced                         : Yes