Them.That.Follow.2019.SrbSub.1080p.WEB.x264-[cyd]

Klikni za povečavo!
12-11-2019 12:23 naložil
Sejalci: 1 / Odjemalci: 0 / Velikost: 1.86 GB / Dokončani: 17
Prenesi torrent Poročaj torrent Opis torrenta NFO
Zvrst: Triler
Kategorija: FILMI > WEBRip-1080

——————————————————————————————————————————————————————————————————
IMDb info:
◎ Naslov: Them That Follow
◎ Leto: 2019
◎ Zvrst: triler
◎ Jezik: angleški
◎ Ocena: 6,00
◎ Stars: Kaitlyn Dever, Walton Goggins, Olivia Colman
◎ Povzetek: Set deep in the wilds of Appalachia, where believers handle death-dealing snakes to prove themselves before God, a pastor's daughter holds a secret that threatens to tear her community apart.
———————————————————————————————————————————————————————————
YouTube URADNI NAPOVEDNIK:
——————————————————————————————————————————————————————————————————
PODNAPISI:
◎ Jezik : srbski latinica [vstavljeni / softcoded / multiplexed]
——————————————————————————————————————————————————————————————————
VIR:
◎ Source:
Them.That.Follow.2019.1080p.WEBRip.x264-RARBG.mp4
◎ After coding:
Them.That.Follow.2019.SrbSub.1080p.WEB.x264-[cyd].mkv
——————————————————————————————————————————————————————————————————
synysa, Ziva, Gujdek99 in 3 ostalim je to všeč.
Delite na socialnem omrežju
——————————————————————————————————————————————————————————————————
IMDb info:
◎ Naslov: Them That Follow
◎ Leto: 2019
◎ Zvrst: triler
◎ Jezik: angleški
◎ Ocena: 6,00
◎ Stars: Kaitlyn Dever, Walton Goggins, Olivia Colman
◎ Povzetek: Set deep in the wilds of Appalachia, where believers handle death-dealing snakes to prove themselves before God, a pastor's daughter holds a secret that threatens to tear her community apart.
———————————————————————————————————————————————————————————
YouTube URADNI NAPOVEDNIK:
——————————————————————————————————————————————————————————————————
PODNAPISI:
◎ Jezik : srbski latinica [vstavljeni / softcoded / multiplexed]
——————————————————————————————————————————————————————————————————
VIR:
◎ Source:
Them.That.Follow.2019.1080p.WEBRip.x264-RARBG.mp4
◎ After coding:
Them.That.Follow.2019.SrbSub.1080p.WEB.x264-[cyd].mkv
——————————————————————————————————————————————————————————————————
Trenutno še ni nobenega komentarja.
###.
.                                          .""--.._
                                           []      `'--.._
                                           ||__           `'-,
                                         `)||_ ```'--..       \
                     _                    /|//}        ``--._  |
                  .'` `'.                /////}              `\/
                 /  .""".\              //{///
                /  /_  _`\\            // `||
                | |(_)(_)||          _//   ||
                | |  /\  )|        _///\   ||
                | |L====J |       / |/ |   ||
               /  /'-..-' /    .'`  \  |   ||
              /   |  :: | |_.-`      |  \  ||
             /|   `\-::.| |          \   | ||
           /` `|   /    | |          |   / ||
         |`    \   |    / /          \  |  ||
        |       `\_|    |/      ,.__. \ |  ||
        /                     /`    `\ ||  ||
       |           .         /        \||  ||
       |                     |         |/  ||
       /         /           |         (   ||
      /          .           /          )  ||
 ------------------------------------------------------------------
|                    Reaper                                        |
 ------------------------------------------------------------------
General
Complete name                  : Them.That.Follow.2019.SrbSub.1080p.WEB.x264-[cyd].mkv
Format                         : Matroska
Format version                 : Version 4
File size                      : 1.86 GiB
Duration                       : 1 h 37 min
Overall bit rate               : 2 721 kb/s
Encoded date                   : UTC 2019-11-12 11:03:33
Writing application            : mkvmerge v22.0.0 ('At The End Of The World') 64-bit
Writing library                : libebml v1.3.5 + libmatroska v1.4.8

Video
ID                             : 1
Format                         : AVC
Format/Info                    : Advanced Video Codec
Format profile                 : High@L4.1
Format settings                : CABAC / 4 Ref Frames
Format settings, CABAC         : Yes
Format settings, ReFrames      : 4 frames
Codec ID                       : V_MPEG4/ISO/AVC
Duration                       : 1 h 37 min
Bit rate                       : 2 500 kb/s
Width                          : 1 920 pixels
Height                         : 816 pixels
Display aspect ratio           : 2.35:1
Frame rate mode                : Constant
Frame rate                     : 23.976 (23976/1000) FPS
Color space                    : YUV
Chroma subsampling             : 4:2:0
Bit depth                      : 8 bits
Scan type                      : Progressive
Bits/(Pixel*Frame)             : 0.067
Stream size                    : 1.71 GiB (92%)
Writing library                : x264 core 152 r2851M ba24899
Language                       : English
Default                        : Yes
Forced                         : No

Audio
ID                             : 2
Format                         : AAC LC
Format/Info                    : Advanced Audio Codec Low Complexity
Codec ID                       : A_AAC-2
Duration                       : 1 h 37 min
Bit rate                       : 224 kb/s
Channel(s)                     : 6 channels
Channel layout                 : C L R Ls Rs LFE
Sampling rate                  : 48.0 kHz
Frame rate                     : 46.875 FPS (1024 SPF)
Compression mode               : Lossy
Delay relative to video        : -43 ms
Stream size                    : 157 MiB (8%)
Language                       : English
Default                        : Yes
Forced                         : No

Text
ID                             : 3
Format                         : UTF-8
Codec ID                       : S_TEXT/UTF8
Codec ID/Info                  : UTF-8 Plain Text
Duration                       : 1 h 31 min
Bit rate                       : 26 b/s
Count of elements              : 575
Stream size                    : 17.5 KiB (0%)
Title                          : preveo: adm1r
Language                       : Serbian
Default                        : Yes
Forced                         : No