Malevolent.2018.SloSub.1080p.WEB.x264-[cyd]

Klikni za povečavo!
15-11-2019 16:02 naložil
Sejalci: 1 / Odjemalci: 0 / Velikost: 1.69 GB / Dokončani: 8
Prenesi torrent Magnet Link Poročaj torrent Opis torrenta NFO
Zvrst: Grozljivka
Kategorija:

——————————————————————————————————————————————————————————————————
IMDb info:
◎ Naslov: Malevolent
◎ Leto: 2018
◎ Zvrst: grozljivka
◎ Jezik: angleški
◎ Ocena: 6,00
◎ Povzetek: Angela (Florence Pugh) in Jackson (Ben Lloyd-Hughes) sta brat in sestra ter navadna sleparja. Izkoriščata žalujoče, ki so ranljivi, ter jih prepričata, da lahko Angela govori z mrtvimi. Njuna naslednja žrtev je ga. Green (Celia Imrie), stara ženska, ki živi sama v zapuščeni sirotišnici in ki želi, da utišata glasove, zaradi katerih ponoči ne more spati. Toda poslopje ima svojo mračno zgodovino.
V sirotišnici so ubili veliko mladih deklet in Angela ni več prepričana, kaj je res in kaj ne. Prepričana je, da sliši dekleta, ki jo kličejo iz notranjosti hiše.
———————————————————————————————————————————————————————————
YouTube URADNI NAPOVEDNIK:
——————————————————————————————————————————————————————————————————
PODNAPISI:
◎ Jezik : slovenski [vstavljeni / softcoded / multiplexed]
——————————————————————————————————————————————————————————————————
VIR:
◎ Source:
Malevolent.2018.1080p.WEBRip.x264-RARBG.mp4
◎ After coding:
Malevolent.2018.SloSub.1080p.WEB.x264-[cyd].mkv
——————————————————————————————————————————————————————————————————
martin1954, Ziva in ViHaR je to všeč.
Delite na socialnem omrežju
——————————————————————————————————————————————————————————————————
IMDb info:
◎ Naslov: Malevolent
◎ Leto: 2018
◎ Zvrst: grozljivka
◎ Jezik: angleški
◎ Ocena: 6,00
◎ Povzetek: Angela (Florence Pugh) in Jackson (Ben Lloyd-Hughes) sta brat in sestra ter navadna sleparja. Izkoriščata žalujoče, ki so ranljivi, ter jih prepričata, da lahko Angela govori z mrtvimi. Njuna naslednja žrtev je ga. Green (Celia Imrie), stara ženska, ki živi sama v zapuščeni sirotišnici in ki želi, da utišata glasove, zaradi katerih ponoči ne more spati. Toda poslopje ima svojo mračno zgodovino.
V sirotišnici so ubili veliko mladih deklet in Angela ni več prepričana, kaj je res in kaj ne. Prepričana je, da sliši dekleta, ki jo kličejo iz notranjosti hiše.
———————————————————————————————————————————————————————————
YouTube URADNI NAPOVEDNIK:
——————————————————————————————————————————————————————————————————
PODNAPISI:
◎ Jezik : slovenski [vstavljeni / softcoded / multiplexed]
——————————————————————————————————————————————————————————————————
VIR:
◎ Source:
Malevolent.2018.1080p.WEBRip.x264-RARBG.mp4
◎ After coding:
Malevolent.2018.SloSub.1080p.WEB.x264-[cyd].mkv
——————————————————————————————————————————————————————————————————
Trenutno še ni nobenega komentarja.
###.
.                                          .""--.._
                                           []      `'--.._
                                           ||__           `'-,
                                         `)||_ ```'--..       \
                     _                    /|//}        ``--._  |
                  .'` `'.                /////}              `\/
                 /  .""".\              //{///
                /  /_  _`\\            // `||
                | |(_)(_)||          _//   ||
                | |  /\  )|        _///\   ||
                | |L====J |       / |/ |   ||
               /  /'-..-' /    .'`  \  |   ||
              /   |  :: | |_.-`      |  \  ||
             /|   `\-::.| |          \   | ||
           /` `|   /    | |          |   / ||
         |`    \   |    / /          \  |  ||
        |       `\_|    |/      ,.__. \ |  ||
        /                     /`    `\ ||  ||
       |           .         /        \||  ||
       |                     |         |/  ||
       /         /           |         (   ||
      /          .           /          )  ||
 ------------------------------------------------------------------
|                    Reaper                                        |
 ------------------------------------------------------------------
General
Complete name                  : Malevolent.2018.SloSub.1080p.WEB.x264-[cyd].mkv
Format                         : Matroska
Format version                 : Version 4
File size                      : 1.69 GiB
Duration                       : 1 h 28 min
Overall bit rate               : 2 726 kb/s
Encoded date                   : UTC 2019-11-15 14:57:37
Writing application            : mkvmerge v22.0.0 ('At The End Of The World') 64-bit
Writing library                : libebml v1.3.5 + libmatroska v1.4.8

Video
ID                             : 1
Format                         : AVC
Format/Info                    : Advanced Video Codec
Format profile                 : High@L4.1
Format settings                : CABAC / 4 Ref Frames
Format settings, CABAC         : Yes
Format settings, ReFrames      : 4 frames
Codec ID                       : V_MPEG4/ISO/AVC
Duration                       : 1 h 28 min
Bit rate                       : 2 500 kb/s
Width                          : 1 920 pixels
Height                         : 796 pixels
Display aspect ratio           : 2.40:1
Frame rate mode                : Constant
Frame rate                     : 24.000 FPS
Color space                    : YUV
Chroma subsampling             : 4:2:0
Bit depth                      : 8 bits
Scan type                      : Progressive
Bits/(Pixel*Frame)             : 0.068
Stream size                    : 1.55 GiB (92%)
Writing library                : x264 core 152 r2851M ba24899
Language                       : English
Default                        : Yes
Forced                         : No

Audio
ID                             : 2
Format                         : AAC LC
Format/Info                    : Advanced Audio Codec Low Complexity
Codec ID                       : A_AAC-2
Duration                       : 1 h 28 min
Bit rate                       : 224 kb/s
Channel(s)                     : 6 channels
Channel layout                 : C L R Ls Rs LFE
Sampling rate                  : 48.0 kHz
Frame rate                     : 46.875 FPS (1024 SPF)
Compression mode               : Lossy
Delay relative to video        : -43 ms
Stream size                    : 142 MiB (8%)
Language                       : English
Default                        : Yes
Forced                         : No

Text
ID                             : 3
Format                         : UTF-8
Codec ID                       : S_TEXT/UTF8
Codec ID/Info                  : UTF-8 Plain Text
Duration                       : 1 h 24 min
Bit rate                       : 28 b/s
Count of elements              : 595
Stream size                    : 17.5 KiB (0%)
Title                          : Prevod - RETAiL
Language                       : Slovenian
Default                        : Yes
Forced                         : Yes