The.Mandalorian.S01E03.SloSub.720p.WEB.x265-MiNX

Klikni za povečavo!
25-11-2019 11:22 naložil
Sejalci: 1 / Odjemalci: 0 / Velikost: 105.4 MB / Dokončani: 19
Prenesi torrent Magnet Link Poročaj torrent Opis torrenta NFO
Zvrst: Akcija | Pustolovski | Z.F.
Kategorija: FILMI > WEBRip-720

——————————————————————————————————————————————————————————————————
IMDb info:
◎ Naslov: The Mandalorian
◎ Leto: 2019
◎ Sezona: 1
◎ Epizoda: 3 / 8
◎ Zvrst: akcija, pustolovski, Z.F.
◎ Jezik: angleški
◎ Ocena: 9,1
◎ Igrajo:
◎ Povzetek: Dogajanje je postavljeno včas po padcu Cesarstva in pred vzponom Prvega reda.
Potovanja samotnega strelca v zunanjih dosegih galaksije, daleč od oblasti Nove republike.
———————————————————————————————————————————————————————————
YouTube URADNI NAPOVEDNIK:
——————————————————————————————————————————————————————————————————
PODNAPISI:
◎ Jezik : slovenski [vstavljeni / softcoded / multiplexed]
——————————————————————————————————————————————————————————————————
VIR:
◎ Source:
The.Mandalorian.S01E03.720p.WEB.x265-MiNX.mp4
◎ After coding:
The.Mandalorian.S01E03.SloSub.720p.Web.x265-[cyd].mkv
——————————————————————————————————————————————————————————————————
ViHaR in Ziva je to všeč.
Delite na socialnem omrežju
——————————————————————————————————————————————————————————————————
IMDb info:
◎ Naslov: The Mandalorian
◎ Leto: 2019
◎ Sezona: 1
◎ Epizoda: 3 / 8
◎ Zvrst: akcija, pustolovski, Z.F.
◎ Jezik: angleški
◎ Ocena: 9,1
◎ Igrajo:
◎ Povzetek: Dogajanje je postavljeno včas po padcu Cesarstva in pred vzponom Prvega reda.
Potovanja samotnega strelca v zunanjih dosegih galaksije, daleč od oblasti Nove republike.
———————————————————————————————————————————————————————————
YouTube URADNI NAPOVEDNIK:
——————————————————————————————————————————————————————————————————
PODNAPISI:
◎ Jezik : slovenski [vstavljeni / softcoded / multiplexed]
——————————————————————————————————————————————————————————————————
VIR:
◎ Source:
The.Mandalorian.S01E03.720p.WEB.x265-MiNX.mp4
◎ After coding:
The.Mandalorian.S01E03.SloSub.720p.Web.x265-[cyd].mkv
——————————————————————————————————————————————————————————————————
Trenutno še ni nobenega komentarja.
###.
.                                          .""--.._
                                           []      `'--.._
                                           ||__           `'-,
                                         `)||_ ```'--..       \
                     _                    /|//}        ``--._  |
                  .'` `'.                /////}              `\/
                 /  .""".\              //{///
                /  /_  _`\\            // `||
                | |(_)(_)||          _//   ||
                | |  /\  )|        _///\   ||
                | |L====J |       / |/ |   ||
               /  /'-..-' /    .'`  \  |   ||
              /   |  :: | |_.-`      |  \  ||
             /|   `\-::.| |          \   | ||
           /` `|   /    | |          |   / ||
         |`    \   |    / /          \  |  ||
        |       `\_|    |/      ,.__. \ |  ||
        /                     /`    `\ ||  ||
       |           .         /        \||  ||
       |                     |         |/  ||
       /         /           |         (   ||
      /          .           /          )  ||
 ------------------------------------------------------------------
|                    Reaper                                        |
 ------------------------------------------------------------------
General
Complete name                  : The.Mandalorian.S01E03.720p.WEB.x265-MiNX.mkv
Format                         : Matroska
Format version                 : Version 4
File size                      : 104 MiB
Duration                       : 37 min 17 s
Overall bit rate               : 392 kb/s
Movie name                     : MiNX - The.Mandalorian.S01E03.720p.WEB.x265-MiNX
Encoded date                   : UTC 2019-11-25 10:16:03
Writing application            : mkvmerge v22.0.0 ('At The End Of The World') 64-bit
Writing library                : libebml v1.3.5 + libmatroska v1.4.8 / Lavf58.20.100
Comment                        : MiNX - Small HD episodes

Video
ID                             : 1
Format                         : HEVC
Format/Info                    : High Efficiency Video Coding
Format profile                 : Main@L3.1@Main
Codec ID                       : V_MPEGH/ISO/HEVC
Duration                       : 37 min 17 s
Bit rate                       : 298 kb/s
Width                          : 1 280 pixels
Height                         : 720 pixels
Display aspect ratio           : 16:9
Frame rate mode                : Constant
Frame rate                     : 23.976 (24000/1001) FPS
Color space                    : YUV
Chroma subsampling             : 4:2:0
Bit depth                      : 8 bits
Bits/(Pixel*Frame)             : 0.013
Stream size                    : 79.4 MiB (76%)
Title                          : MiNX - Small HD episodes
Writing library                : x265 3.1.2+1-76650bab70f9:[Linux][GCC 8.3.0][64 bit] 8bit+10bit+12bit
Language                       : English
Default                        : Yes
Forced                         : No

Audio
ID                             : 2
Format                         : AAC LC
Format/Info                    : Advanced Audio Codec Low Complexity
Codec ID                       : A_AAC-2
Duration                       : 37 min 17 s
Bit rate                       : 91.6 kb/s
Channel(s)                     : 2 channels
Channel layout                 : L R
Sampling rate                  : 48.0 kHz
Frame rate                     : 46.875 FPS (1024 SPF)
Compression mode               : Lossy
Stream size                    : 24.4 MiB (23%)
Title                          : MiNX - Small HD episodes
Writing library                : Lavc58.35.100 aac
Language                       : English
Default                        : Yes
Forced                         : No

Text
ID                             : 3
Format                         : UTF-8
Codec ID                       : S_TEXT/UTF8
Codec ID/Info                  : UTF-8 Plain Text
Duration                       : 32 min 35 s
Bit rate                       : 22 b/s
Count of elements              : 177
Stream size                    : 5.33 KiB (0%)
Title                          : Prevod: SLO4U
Language                       : Slovenian
Default                        : Yes
Forced                         : Yes