See.S01E07.SloSub.720p.Web.x265-[cyd]

Klikni za povečavo!
28-11-2019 12:46 naložil
Sejalci: 1 / Odjemalci: 0 / Velikost: 416.33 MB / Dokončani: 12
Prenesi torrent Magnet Link Poročaj torrent Opis torrenta NFO
Zvrst: Akcija | Drama | Z.F.
Kategorija: FILMI > WEBRip-720

——————————————————————————————————————————————————————————————————
IMDb info:
◎ Naslov: See
◎ Leto: 2019
◎ Sezona: 1
◎ Epizoda: 7/10
◎ Zvrst: akcija, drama, Z.F.
◎ Jezik: angleški
◎ Ocena: 7,7
◎ Igrajo:
◎ Povzetek: V daljni distopijski prihodnosti je človeška rasa izgubila vid, družba pa je morala najti nove načine, kako komunicirati, graditi, loviti in preživeti. Vse to je postavljeno pod vprašaj, ko se rodita dvojčka, ki vidita.
———————————————————————————————————————————————————————————
YouTube URADNI NAPOVEDNIK:
——————————————————————————————————————————————————————————————————
PODNAPISI:
◎ Jezik : slovenski [vstavljeni / softcoded / multiplexed]
——————————————————————————————————————————————————————————————————
VIR:
◎ Source:
See.S01E07.720p.WEB.x265-MiNX.mp4
◎ After coding:
See.S01E07.SloSub.720p.Web.x265-[cyd].mkv
——————————————————————————————————————————————————————————————————
Ziva je to všeč
Delite na socialnem omrežju
——————————————————————————————————————————————————————————————————
IMDb info:
◎ Naslov: See
◎ Leto: 2019
◎ Sezona: 1
◎ Epizoda: 7/10
◎ Zvrst: akcija, drama, Z.F.
◎ Jezik: angleški
◎ Ocena: 7,7
◎ Igrajo:
◎ Povzetek: V daljni distopijski prihodnosti je človeška rasa izgubila vid, družba pa je morala najti nove načine, kako komunicirati, graditi, loviti in preživeti. Vse to je postavljeno pod vprašaj, ko se rodita dvojčka, ki vidita.
———————————————————————————————————————————————————————————
YouTube URADNI NAPOVEDNIK:
——————————————————————————————————————————————————————————————————
PODNAPISI:
◎ Jezik : slovenski [vstavljeni / softcoded / multiplexed]
——————————————————————————————————————————————————————————————————
VIR:
◎ Source:
See.S01E07.720p.WEB.x265-MiNX.mp4
◎ After coding:
See.S01E07.SloSub.720p.Web.x265-[cyd].mkv
——————————————————————————————————————————————————————————————————
Trenutno še ni nobenega komentarja.
###.
.                                          .""--.._
                                           []      `'--.._
                                           ||__           `'-,
                                         `)||_ ```'--..       \
                     _                    /|//}        ``--._  |
                  .'` `'.                /////}              `\/
                 /  .""".\              //{///
                /  /_  _`\\            // `||
                | |(_)(_)||          _//   ||
                | |  /\  )|        _///\   ||
                | |L====J |       / |/ |   ||
               /  /'-..-' /    .'`  \  |   ||
              /   |  :: | |_.-`      |  \  ||
             /|   `\-::.| |          \   | ||
           /` `|   /    | |          |   / ||
         |`    \   |    / /          \  |  ||
        |       `\_|    |/      ,.__. \ |  ||
        /                     /`    `\ ||  ||
       |           .         /        \||  ||
       |                     |         |/  ||
       /         /           |         (   ||
      /          .           /          )  ||
 ------------------------------------------------------------------
|                    Reaper                                        |
 ------------------------------------------------------------------
General
Unique ID                      : 238440963350099617988721195323144936557 (0xB3620F230AC56C7FC2DD07FC124A1C6D)
Complete name                  : H:\..1 SERIJE\See\See.S01E01.720p.WEB.x265-MiNX (1).mkv
Format                         : Matroska
Format version                 : Version 4
File size                      : 350 MiB - cca
Duration                       : 50 min - cca
Overall bit rate               : 847 kb/s
Movie name                     : MiNX - See.S01E01.720p.WEB.x265-MiNX
Encoded date                   : UTC 2019-11-16 18:12:04
Writing application            : mkvmerge v22.0.0 ('At The End Of The World') 64-bit
Writing library                : libebml v1.3.5 + libmatroska v1.4.8 / Lavf58.20.100
Comment                        : MiNX - Small HD episodes

Video
ID                             : 1
Format                         : HEVC
Format/Info                    : High Efficiency Video Coding
Format profile                 : Main@L3.1@Main
Codec ID                       : V_MPEGH/ISO/HEVC
Duration                       : 57 min 30 s
Bit rate                       : 749 kb/s
Width                          : 1 114 pixels
Height                         : 528 pixels
Display aspect ratio           : 2.110
Frame rate mode                : Variable
Frame rate                     : 23.976 FPS
Color space                    : YUV
Chroma subsampling             : 4:2:0
Bit depth                      : 8 bits
Bits/(Pixel*Frame)             : 0.053
Stream size                    : 308 MiB (88%)
Title                          : MiNX - Small HD episodes
Writing library                : x265 3.1.2+1-76650bab70f9:[Linux][GCC 8.3.0][64 bit] 8bit+10bit+12bit
Language                       : English
Default                        : Yes
Forced                         : No

Audio
ID                             : 2
Format                         : AAC LC
Format/Info                    : Advanced Audio Codec Low Complexity
Codec ID                       : A_AAC-2
Duration                       : 57 min 30 s
Bit rate                       : 96.0 kb/s
Channel(s)                     : 2 channels
Channel layout                 : L R
Sampling rate                  : 48.0 kHz
Frame rate                     : 46.875 FPS (1024 SPF)
Compression mode               : Lossy
Stream size                    : 39.6 MiB (11%)
Title                          : MiNX - Small HD episodes
Writing library                : Lavc58.35.100 aac
Language                       : English
Default                        : Yes
Forced                         : No

Text
ID                             : 3
Format                         : UTF-8
Codec ID                       : S_TEXT/UTF8
Codec ID/Info                  : UTF-8 Plain Text
Duration                       : 55 min 32 s
Bit rate                       : 35 b/s
Count of elements              : 439
Stream size                    : 14.4 KiB (0%)
Title                          : PREVEDEL : TATAR
Language                       : Slovenian
Default                        : Yes
Forced                         : Yes