Making.a.Killing.2018.SrbSub.1080p.WEB.x264-[cyd]

Klikni za povečavo!
29-11-2019 19:52 naložil
Sejalci: 1 / Odjemalci: 0 / Velikost: 1.72 GB / Dokončani: 12
Prenesi torrent Magnet Link Poročaj torrent Opis torrenta NFO
Kategorija:

——————————————————————————————————————————————————————————————————
IMDb info:
◎ Naslov: Making a Killing
◎ Leto: 2018
◎ Zvrst: kriminalka, drama, skrivnosten
◎ Jezik: angleški
◎ Ocena: 4,8
◎ Povzetek: Three morticians get caught in a web of greed and deceit, involving buried treasure and a tangled love affair, in this modern day crime mystery that is based on a true story.
———————————————————————————————————————————————————————————
YouTube URADNI NAPOVEDNIK:
——————————————————————————————————————————————————————————————————
PODNAPISI:
◎ Jezik : srbski latinica [vstavljeni / softcoded / multiplexed]
——————————————————————————————————————————————————————————————————
VIR:
◎ Source:
Making.A.Killing.2018.1080p.WEBRip.x264-[YTS.AM].mp4
◎ After coding:
Making.a.Killing.2018.SrbSub.1080p.WEB.x264-[cyd].mkv
——————————————————————————————————————————————————————————————————
apathy, synysa, ViHaR in 2 ostalim je to všeč.
Delite na socialnem omrežju
——————————————————————————————————————————————————————————————————
IMDb info:
◎ Naslov: Making a Killing
◎ Leto: 2018
◎ Zvrst: kriminalka, drama, skrivnosten
◎ Jezik: angleški
◎ Ocena: 4,8
◎ Povzetek: Three morticians get caught in a web of greed and deceit, involving buried treasure and a tangled love affair, in this modern day crime mystery that is based on a true story.
———————————————————————————————————————————————————————————
YouTube URADNI NAPOVEDNIK:
——————————————————————————————————————————————————————————————————
PODNAPISI:
◎ Jezik : srbski latinica [vstavljeni / softcoded / multiplexed]
——————————————————————————————————————————————————————————————————
VIR:
◎ Source:
Making.A.Killing.2018.1080p.WEBRip.x264-[YTS.AM].mp4
◎ After coding:
Making.a.Killing.2018.SrbSub.1080p.WEB.x264-[cyd].mkv
——————————————————————————————————————————————————————————————————
Trenutno še ni nobenega komentarja.
###.
.                                          .""--.._
                                           []      `'--.._
                                           ||__           `'-,
                                         `)||_ ```'--..       \
                     _                    /|//}        ``--._  |
                  .'` `'.                /////}              `\/
                 /  .""".\              //{///
                /  /_  _`\\            // `||
                | |(_)(_)||          _//   ||
                | |  /\  )|        _///\   ||
                | |L====J |       / |/ |   ||
               /  /'-..-' /    .'`  \  |   ||
              /   |  :: | |_.-`      |  \  ||
             /|   `\-::.| |          \   | ||
           /` `|   /    | |          |   / ||
         |`    \   |    / /          \  |  ||
        |       `\_|    |/      ,.__. \ |  ||
        /                     /`    `\ ||  ||
       |           .         /        \||  ||
       |                     |         |/  ||
       /         /           |         (   ||
      /          .           /          )  ||
 ------------------------------------------------------------------
|                    Reaper                                        |
 ------------------------------------------------------------------
General
Complete name             : Making.a.Killing.2018.SrbSub.1080p.WEB.x264-[cyd].mkv
Format                         : Matroska
Format version                 : Version 4
File size                      : 1.72 GiB
Duration                       : 1 h 46 min
Overall bit rate               : 2 298 kb/s
Encoded date                   : UTC 2019-11-29 18:44:53
Writing application            : mkvmerge v22.0.0 ('At The End Of The World') 64-bit
Writing library                : libebml v1.3.5 + libmatroska v1.4.8

Video
ID                             : 1
Format                         : AVC
Format/Info                    : Advanced Video Codec
Format profile                 : High@L4.1
Format settings                : CABAC / 4 Ref Frames
Format settings, CABAC         : Yes
Format settings, ReFrames      : 4 frames
Codec ID                       : V_MPEG4/ISO/AVC
Duration                       : 1 h 46 min
Bit rate                       : 2 150 kb/s
Width                          : 1 920 pixels
Height                         : 1 072 pixels
Display aspect ratio           : 16:9
Frame rate mode                : Constant
Frame rate                     : 23.976 (24000/1001) FPS
Color space                    : YUV
Chroma subsampling             : 4:2:0
Bit depth                      : 8 bits
Scan type                      : Progressive
Bits/(Pixel*Frame)             : 0.044
Stream size                    : 1.60 GiB (94%)
Writing library                : x264 core 157
Language                       : English
Default                        : Yes
Forced                         : No

Audio
ID                             : 2
Format                         : AAC LC
Format/Info                    : Advanced Audio Codec Low Complexity
Codec ID                       : A_AAC-2
Duration                       : 1 h 46 min
Bit rate                       : 144 kb/s
Channel(s)                     : 2 channels
Channel layout                 : L R
Sampling rate                  : 48.0 kHz
Frame rate                     : 46.875 FPS (1024 SPF)
Compression mode               : Lossy
Delay relative to video        : -43 ms
Stream size                    : 112 MiB (6%)
Language                       : English
Default                        : Yes
Forced                         : No

Text
ID                             : 3
Format                         : UTF-8
Codec ID                       : S_TEXT/UTF8
Codec ID/Info                  : UTF-8 Plain Text
Duration                       : 1 h 42 min
Bit rate                       : 47 b/s
Count of elements              : 1060
Stream size                    : 35.5 KiB (0%)
Title                          : prevod: padova
Language                       : Serbian
Default                        : Yes
Forced                         : Yes