Ad.Astra.2019.SloSub.1080p.WEB.x264-[cyd]

Klikni za povečavo!
03-12-2019 19:22 naložil
Sejalci: 0 / Odjemalci: 0 / Velikost: 2.38 GB / Dokončani: 40
Prenesi torrent Poročaj torrent Opis torrenta NFO
Kategorija: FILMI > WEBRip-1080

——————————————————————————————————————————————————————————————————
IMDb info:
◎ Naslov: Ad astra: pot do zvezd - Ad Astra (original title)
◎ Leto: 2019
◎ Zvrst: pustolovski, drama, skrivnosten
◎ Jezik: angleški
◎ Ocena: 7,00
◎ Povzetek: Zgodba govori o inžinirju vojaške enote (Brad Pitt), ki raziskuje galaksije, da bi našel svojega očeta (Tommy Lee Jones), ki je pred 20 leti izginil na misiji iskanja življenja izven Zemlje.
———————————————————————————————————————————————————————————
YouTube URADNI NAPOVEDNIK:
——————————————————————————————————————————————————————————————————
PODNAPISI:
◎ Jezik : slovenski [vstavljeni / softcoded / multiplexed]
——————————————————————————————————————————————————————————————————
VIR:
◎ Source:
Ad.Astra.2019.1080p.WEBRip.x264-RARBG.mp4
◎ After coding:
Ad.Astra.2019.SloSub.1080p.WEB.x264-[cyd].mkv
——————————————————————————————————————————————————————————————————
ViHaR, Willy, martin1954 in 1 ostalim je to všeč.
Delite na socialnem omrežju
——————————————————————————————————————————————————————————————————
IMDb info:
◎ Naslov: Ad astra: pot do zvezd - Ad Astra (original title)
◎ Leto: 2019
◎ Zvrst: pustolovski, drama, skrivnosten
◎ Jezik: angleški
◎ Ocena: 7,00
◎ Povzetek: Zgodba govori o inžinirju vojaške enote (Brad Pitt), ki raziskuje galaksije, da bi našel svojega očeta (Tommy Lee Jones), ki je pred 20 leti izginil na misiji iskanja življenja izven Zemlje.
———————————————————————————————————————————————————————————
YouTube URADNI NAPOVEDNIK:
——————————————————————————————————————————————————————————————————
PODNAPISI:
◎ Jezik : slovenski [vstavljeni / softcoded / multiplexed]
——————————————————————————————————————————————————————————————————
VIR:
◎ Source:
Ad.Astra.2019.1080p.WEBRip.x264-RARBG.mp4
◎ After coding:
Ad.Astra.2019.SloSub.1080p.WEB.x264-[cyd].mkv
——————————————————————————————————————————————————————————————————
Trenutno še ni nobenega komentarja.
###.
.                                          .""--.._
                                           []      `'--.._
                                           ||__           `'-,
                                         `)||_ ```'--..       \
                     _                    /|//}        ``--._  |
                  .'` `'.                /////}              `\/
                 /  .""".\              //{///
                /  /_  _`\\            // `||
                | |(_)(_)||          _//   ||
                | |  /\  )|        _///\   ||
                | |L====J |       / |/ |   ||
               /  /'-..-' /    .'`  \  |   ||
              /   |  :: | |_.-`      |  \  ||
             /|   `\-::.| |          \   | ||
           /` `|   /    | |          |   / ||
         |`    \   |    / /          \  |  ||
        |       `\_|    |/      ,.__. \ |  ||
        /                     /`    `\ ||  ||
       |           .         /        \||  ||
       |                     |         |/  ||
       /         /           |         (   ||
      /          .           /          )  ||
 ------------------------------------------------------------------
|                    Reaper                                        |
 ------------------------------------------------------------------
General
Complete name                  : Ad.Astra.2019.SrbSub.1080p.WEB.x264-[cyd].mkv
Format                         : Matroska
Format version                 : Version 4
File size                      : 2.38 GiB
Duration                       : 2 h 5 min
Overall bit rate               : 2 725 kb/s
Encoded date                   : UTC 2019-12-03 17:35:56
Writing application            : mkvmerge v22.0.0 ('At The End Of The World') 64-bit
Writing library                : libebml v1.3.5 + libmatroska v1.4.8

Video
ID                             : 1
Format                         : AVC
Format/Info                    : Advanced Video Codec
Format profile                 : High@L4.1
Format settings                : CABAC / 4 Ref Frames
Format settings, CABAC         : Yes
Format settings, ReFrames      : 4 frames
Codec ID                       : V_MPEG4/ISO/AVC
Duration                       : 2 h 5 min
Bit rate                       : 2 500 kb/s
Width                          : 1 920 pixels
Height                         : 804 pixels
Display aspect ratio           : 2.40:1
Frame rate mode                : Constant
Frame rate                     : 23.976 (23976/1000) FPS
Color space                    : YUV
Chroma subsampling             : 4:2:0
Bit depth                      : 8 bits
Scan type                      : Progressive
Bits/(Pixel*Frame)             : 0.068
Stream size                    : 2.19 GiB (92%)
Writing library                : x264 core 152 r2851M ba24899
Language                       : English
Default                        : Yes
Forced                         : No

Audio
ID                             : 2
Format                         : AAC LC
Format/Info                    : Advanced Audio Codec Low Complexity
Codec ID                       : A_AAC-2
Duration                       : 2 h 5 min
Bit rate                       : 224 kb/s
Channel(s)                     : 6 channels
Channel layout                 : C L R Ls Rs LFE
Sampling rate                  : 48.0 kHz
Frame rate                     : 46.875 FPS (1024 SPF)
Compression mode               : Lossy
Delay relative to video        : -43 ms
Stream size                    : 201 MiB (8%)
Language                       : English
Default                        : Yes
Forced                         : No

Text
ID                             : 3
Format                         : UTF-8
Codec ID                       : S_TEXT/UTF8
Codec ID/Info                  : UTF-8 Plain Text
Duration                       : 2 h 2 min
Bit rate                       : 35 b/s
Count of elements              : 968
Stream size                    : 31.6 KiB (0%)
Title                          : Prevedla: Misa Savor
Language                       : Slovenian
Default                        : Yes
Forced                         : Yes