DJ VIHAR & DJ AJDA - BOZICNI MIX 2019

Klikni za povečavo!
19-12-2019 12:49 naložil Ajda
Sejalci: 1 / Odjemalci: 0 / Velikost: 145.9 MB / Dokončani: 23
Prenesi torrent Poročaj torrent Opis torrenta NFO
Kategorija: GLASBA > Glasba




-------------------------------------------------------------------------------
Avdio podatki
-------------------------------------------------------------------------------
Complete name : DJ VIHAR & DJ AJDA - BOŽIČNI MIX 2019
Format : MPEG Audio
File size : 144 MiB
Duration : 1h 3mn
Overall bit rate mode : Constant
Overall bit rate : 320 Kbps
Encoded by : Lavf52.39.0
Writing library : LAME3.98

Audio
Format : MPEG Audio
Format version : Version 1
Format profile : Layer 3
Mode : Joint stereo
Duration : 1h 3mn
Bit rate mode : Constant
Bit rate : 320 Kbps
Channel(s) : 2 channels
Sampling rate : 48.0 KHz
Compression mode : Lossy
Stream size : 144 MiB (100%)
Writing library : LAME3.98


01. Petar Grašo - Fritula
02. Mladi korenjaki - ČAS BOŽIČA
03. Božični zborček - Božični čas
04. NEJC KASTELIC IN ZBORČEK - BOŽIČ JE, KAR VIDIŠ V NJEM
05. Turbo Angels - Na božično noč
06. Dominik Novinc - Ponoć Je
07. Ivan Zak - Puno je želja
08. Učiteljice - GDJE JE DOM
09. TS Prijatelji feat. Minea - Božić je pred vratima
10. JASMIN STAVROS - Sretan božič ljubavi
11. Opća Opasnost - Raduj se cijeli svijete
12. POSKOČNI & NUŠA DERENDA - BELI OBLAKI, BELE SNEŽINKE
13. Skupina Primorci - Sneg v Portorožu
14. S.O.S. kvintet - BOŽIČNI ČAS
15. ŽIGA JELAR - PRIJATELJI
16. Tri mušketira - Na Božić mislim ja
17. NAVEZA & MAJA ODERLAP - NAJLEPŠE PRAZNIČNE
18. Saša Lendero - Zima je, Božič za vse



Spartakus, HERMANZ, anrejh in 5 ostalim je to všeč.
Delite na socialnem omrežju



-------------------------------------------------------------------------------
Avdio podatki
-------------------------------------------------------------------------------
Complete name : DJ VIHAR & DJ AJDA - BOŽIČNI MIX 2019
Format : MPEG Audio
File size : 144 MiB
Duration : 1h 3mn
Overall bit rate mode : Constant
Overall bit rate : 320 Kbps
Encoded by : Lavf52.39.0
Writing library : LAME3.98

Audio
Format : MPEG Audio
Format version : Version 1
Format profile : Layer 3
Mode : Joint stereo
Duration : 1h 3mn
Bit rate mode : Constant
Bit rate : 320 Kbps
Channel(s) : 2 channels
Sampling rate : 48.0 KHz
Compression mode : Lossy
Stream size : 144 MiB (100%)
Writing library : LAME3.98


01. Petar Grašo - Fritula
02. Mladi korenjaki - ČAS BOŽIČA
03. Božični zborček - Božični čas
04. NEJC KASTELIC IN ZBORČEK - BOŽIČ JE, KAR VIDIŠ V NJEM
05. Turbo Angels - Na božično noč
06. Dominik Novinc - Ponoć Je
07. Ivan Zak - Puno je želja
08. Učiteljice - GDJE JE DOM
09. TS Prijatelji feat. Minea - Božić je pred vratima
10. JASMIN STAVROS - Sretan božič ljubavi
11. Opća Opasnost - Raduj se cijeli svijete
12. POSKOČNI & NUŠA DERENDA - BELI OBLAKI, BELE SNEŽINKE
13. Skupina Primorci - Sneg v Portorožu
14. S.O.S. kvintet - BOŽIČNI ČAS
15. ŽIGA JELAR - PRIJATELJI
16. Tri mušketira - Na Božić mislim ja
17. NAVEZA & MAJA ODERLAP - NAJLEPŠE PRAZNIČNE
18. Saša Lendero - Zima je, Božič za vse



hvala, za popestritev in nekaj svežega
Spartakus 21-12-2019 15:29
*******************************************************************************

                               \\\ ///

                           @/ _ _ \@

                            ( (o) (o) )

          ==oOOO==(_)====OOOo====

               ~ www.ViDEOTEKA.org ~

                    =========== Oooo.====
                                (   )
                    .oooO        ) / 
                    (   )       (_/
                     \ (          
                      \_)


*******************************************************************************
               ~ DJ VIHAR & DJ AJDA - BO##I##NI MIX 2019 ~
*******************************************************************************

-------------------------------------------------------------------------------
                          Avdio  podatki
-------------------------------------------------------------------------------
Complete name                      : DJ VIHAR & DJ AJDA - BO##I##NI MIX 2019
Format                                   : MPEG Audio
File size                                : 144 MiB
Duration                                 : 1h 3mn
Overall bit rate mode                    : Constant
Overall bit rate                         : 320 Kbps
Encoded by                               : Lavf52.39.0
Writing library                          : LAME3.98

Audio
Format                                   : MPEG Audio
Format version                           : Version 1
Format profile                           : Layer 3
Mode                                     : Joint stereo
Duration                                 : 1h 3mn
Bit rate mode                            : Constant
Bit rate                                 : 320 Kbps
Channel(s)                               : 2 channels
Sampling rate                            : 48.0 KHz
Compression mode                         : Lossy
Stream size                              : 144 MiB (100%)
Writing library                          : LAME3.98


01. Petar Gra##o - Fritula
02. Mladi korenjaki - ##AS BO##I##A 
03. Bo##i##ni zbor##ek - Bo##i##ni ##as
04. NEJC KASTELIC IN ZBOR##EK - BO##I## JE, KAR VIDI## V NJEM
05. Turbo Angels - Na bo##i##no no##
06. Dominik Novinc - Pono## Je
07. Ivan Zak - Puno je ##elja
08. U##iteljice - GDJE JE DOM
09. TS Prijatelji feat. Minea - Bo##i## je pred vratima
10. JASMIN STAVROS - Sretan bo##i## ljubavi
11. Op##a Opasnost - Raduj se cijeli svijete
12. POSKO##NI & NU##A DERENDA - BELI OBLAKI, BELE SNE##INKE
13. Skupina Primorci - Sneg v Portoro##u
14. S.O.S. kvintet - BO##I##NI ##AS
15. ##IGA JELAR - PRIJATELJI
16. Tri mu##ketira - Na Bo##i## mislim ja 
17. NAVEZA & MAJA ODERLAP - NAJLEP##E PRAZNI##NE
18. Sa##a Lendero - Zima je, Bo##i## za vse