Midway.2019.SrbSub.1080p.HDRip.X264-[cyd]

Klikni za povečavo!
12-01-2020 21:30 naložil
Sejalci: 0 / Odjemalci: 0 / Velikost: 3.77 GB / Dokončani: 22
Prenesi torrent Poročaj torrent Opis torrenta NFO
Kategorija: FILMI > HDRip

——————————————————————————————————————————————————————————————————
IMDb info:
◎ Naslov: Bitka za Midway - Midway (original title)
◎ Leto: 2019
◎ Zvrst: akcija, drama, zgodovinski
◎ Jezik: angleški
◎ Ocena: 6,9
◎ Povzetek: Epski spektakel o bitki za Midway, glavnem preobratu na pacifiški fronti v Drugi svetovni vojni, z bogato igralsko zasedbo in režiserjem Dneva neodvisnosti. Bitka za Midway je bila pomorska bitka v drugi svetovni med mornaricama Japonske in ZDA ter velja za odločilno bitko vojne na Pacifiku v smislu zaustavitve japonskega prodiranja, ki se je začelo z napadom na Pearl Harbor šest mesecev prej. Odvijala se je med 4. in 7. junijem 1942. Pred začetkom bitke so imeli Američani pomembne obveščevalen podatke, da so lažje in bolj pretehtano razporedili svoje ladje. Bitka, v kateri so ključno vlogo odigrala letala in letalonosilke, je potekala v bližini tihomorskega atola Midway, katerega so želeli Japonci zasesti in ga v nadaljevanju vojne uporabiti kot odskočno desko za zavzetje Havajev. Sledila je bitka, v kateri so Američani izgubili eno letalonosilko, Japonci pa štiri. S tem je bila usoda japonske flote zapečatena. Midway je bil rešen japonske invazije. Spektakel z nikoli videnimi akcijskimi prizori nosi odlično igralsko zasedbo: Luke Evans, Woody Harrelson, Mandy Moore, Patrick Wilson, Ed Skrein, Patrick Wilson, Nick Jonas, Aaron Eckhart, Dennis Quaid, Tadanobu Asano, Keean Johnson, Luke Kleintank, Jun Kunimura in Etsushi Toyokawa.
Vir: kolosej.si
———————————————————————————————————————————————————————————
YouTube URADNI NAPOVEDNIK:
——————————————————————————————————————————————————————————————————
PODNAPISI:
◎ Jezik : srbski latinica [vstavljeni / softcoded / multiplexed]
——————————————————————————————————————————————————————————————————
VIR:
◎ Source:
Midway.2019.READNFO.1080p.HDRip.X264-EVO.mp4
◎ After coding:
Midway.2019.SrbSub.1080p.HDRip.X264-[cyd].mkv
————————————————————————————————————————————————————-——————
POVEZAVA:
◎ Seedbox NO Speed Limit
—————————————————————————————————————————————-—————————————
apathy, luka0111, mrvica1973 in 4 ostalim je to všeč.
Delite na socialnem omrežju
——————————————————————————————————————————————————————————————————
IMDb info:
◎ Naslov: Bitka za Midway - Midway (original title)
◎ Leto: 2019
◎ Zvrst: akcija, drama, zgodovinski
◎ Jezik: angleški
◎ Ocena: 6,9
◎ Povzetek: Epski spektakel o bitki za Midway, glavnem preobratu na pacifiški fronti v Drugi svetovni vojni, z bogato igralsko zasedbo in režiserjem Dneva neodvisnosti. Bitka za Midway je bila pomorska bitka v drugi svetovni med mornaricama Japonske in ZDA ter velja za odločilno bitko vojne na Pacifiku v smislu zaustavitve japonskega prodiranja, ki se je začelo z napadom na Pearl Harbor šest mesecev prej. Odvijala se je med 4. in 7. junijem 1942. Pred začetkom bitke so imeli Američani pomembne obveščevalen podatke, da so lažje in bolj pretehtano razporedili svoje ladje. Bitka, v kateri so ključno vlogo odigrala letala in letalonosilke, je potekala v bližini tihomorskega atola Midway, katerega so želeli Japonci zasesti in ga v nadaljevanju vojne uporabiti kot odskočno desko za zavzetje Havajev. Sledila je bitka, v kateri so Američani izgubili eno letalonosilko, Japonci pa štiri. S tem je bila usoda japonske flote zapečatena. Midway je bil rešen japonske invazije. Spektakel z nikoli videnimi akcijskimi prizori nosi odlično igralsko zasedbo: Luke Evans, Woody Harrelson, Mandy Moore, Patrick Wilson, Ed Skrein, Patrick Wilson, Nick Jonas, Aaron Eckhart, Dennis Quaid, Tadanobu Asano, Keean Johnson, Luke Kleintank, Jun Kunimura in Etsushi Toyokawa.
Vir: kolosej.si
———————————————————————————————————————————————————————————
YouTube URADNI NAPOVEDNIK:
——————————————————————————————————————————————————————————————————
PODNAPISI:
◎ Jezik : srbski latinica [vstavljeni / softcoded / multiplexed]
——————————————————————————————————————————————————————————————————
VIR:
◎ Source:
Midway.2019.READNFO.1080p.HDRip.X264-EVO.mp4
◎ After coding:
Midway.2019.SrbSub.1080p.HDRip.X264-[cyd].mkv
————————————————————————————————————————————————————-——————
POVEZAVA:
◎ Seedbox NO Speed Limit
—————————————————————————————————————————————-—————————————
Trenutno še ni nobenega komentarja.
###.
.                                          .""--.._
                                           []      `'--.._
                                           ||__           `'-,
                                         `)||_ ```'--..       \
                     _                    /|//}        ``--._  |
                  .'` `'.                /////}              `\/
                 /  .""".\              //{///
                /  /_  _`\\            // `||
                | |(_)(_)||          _//   ||
                | |  /\  )|        _///\   ||
                | |L====J |       / |/ |   ||
               /  /'-..-' /    .'`  \  |   ||
              /   |  :: | |_.-`      |  \  ||
             /|   `\-::.| |          \   | ||
           /` `|   /    | |          |   / ||
         |`    \   |    / /          \  |  ||
        |       `\_|    |/      ,.__. \ |  ||
        /                     /`    `\ ||  ||
       |           .         /        \||  ||
       |                     |         |/  ||
       /         /           |         (   ||
      /          .           /          )  ||
 ------------------------------------------------------------------
|                    Reaper                                        |
 ------------------------------------------------------------------
General
Unique ID                      : 64903820130995931627560092424998863570 (0x30D40564D03CBE5E91B9DED4FE3DC2D2)
Complete name                  : Midway.2019.SrbSub.1080p.HDRip.X264-[cyd].mkv
Format                         : Matroska
Format version                 : Version 4
File size                      : 3.77 GiB
Duration                       : 2 h 16 min
Overall bit rate               : 3 963 kb/s
Movie name                     : EVO
Encoded date                   : UTC 2020-01-12 19:19:50
Writing application            : mkvmerge v22.0.0 ('At The End Of The World') 64-bit
Writing library                : libebml v1.3.5 + libmatroska v1.4.8

Video
ID                             : 1
Format                         : AVC
Format/Info                    : Advanced Video Codec
Format profile                 : High@L4.1
Format settings                : CABAC / 4 Ref Frames
Format settings, CABAC         : Yes
Format settings, ReFrames      : 4 frames
Codec ID                       : V_MPEG4/ISO/AVC
Duration                       : 2 h 16 min
Bit rate                       : 3 588 kb/s
Width                          : 1 920 pixels
Height                         : 856 pixels
Display aspect ratio           : 2.25:1
Frame rate mode                : Constant
Frame rate                     : 24.000 FPS
Color space                    : YUV
Chroma subsampling             : 4:2:0
Bit depth                      : 8 bits
Scan type                      : Progressive
Bits/(Pixel*Frame)             : 0.091
Stream size                    : 3.41 GiB (90%)
Writing library                : x264 core 142 r2479 dd79a61
Encoding settings              : cabac=1 / ref=1 / deblock=1:0:0 / analyse=0x3:0x3 / me=dia / subme=1 / psy=1 / psy_rd=1.00:0.00 / mixed_ref=0 / me_range=16 / chroma_me=1 / trellis=0 / 8x8dct=1 / cqm=0 / deadzone=21,11 / fast_pskip=1 / chroma_qp_offset=0 / threads=24 / lookahead_threads=4 / sliced_threads=0 / nr=0 / decimate=1 / interlaced=0 / bluray_compat=0 / constrained_intra=0 / bframes=3 / b_pyramid=2 / b_adapt=1 / b_bias=0 / direct=1 / weightb=1 / open_gop=0 / weightp=1 / keyint=240 / keyint_min=24 / scenecut=40 / intra_refresh=0 / rc_lookahead=0 / rc=abr / mbtree=0 / bitrate=3588 / ratetol=1.0 / qcomp=0.60 / qpmin=0 / qpmax=69 / qpstep=4 / vbv_maxrate=62500 / vbv_bufsize=78125 / nal_hrd=none / filler=0 / ip_ratio=1.40 / pb_ratio=1.30 / aq=1:1.00
Language                       : English
Default                        : Yes
Forced                         : No
Color range                    : Limited
Color primaries                : BT.709
Transfer characteristics       : BT.709
Matrix coefficients            : BT.709

Audio
ID                             : 2
Format                         : AC-3
Format/Info                    : Audio Coding 3
Commercial name                : Dolby Digital
Codec ID                       : A_AC3
Duration                       : 2 h 16 min
Bit rate mode                  : Constant
Bit rate                       : 384 kb/s
Channel(s)                     : 2 channels
Channel layout                 : L R
Sampling rate                  : 48.0 kHz
Frame rate                     : 31.250 FPS (1536 SPF)
Bit depth                      : 16 bits
Compression mode               : Lossy
Delay relative to video        : -5 ms
Stream size                    : 374 MiB (10%)
Title                          : Stereo
Language                       : English
Service kind                   : Complete Main
Default                        : Yes
Forced                         : No

Text
ID                             : 3
Format                         : UTF-8
Codec ID                       : S_TEXT/UTF8
Codec ID/Info                  : UTF-8 Plain Text
Duration                       : 2 h 7 min
Bit rate                       : 45 b/s
Count of elements              : 993
Stream size                    : 42.0 KiB (0%)
Language                       : Serbian
Default                        : Yes
Forced                         : Yes