Knives.Out.2019.CROSUB.1080p.WEBRip.x264-NOGRP

Klikni za povečavo!
09-02-2020 16:13 naložil el201
Sejalci: 1 / Odjemalci: 0 / Velikost: 2.48 GB / Dokončani: 13
Prenesi torrent Magnet Link Poročaj torrent Opis torrenta
Kategorija:

Knives.Out.2019.CROSUB.1080p.WEBRip.x264

Jamie Lee Curtis, Don Johnson, Toni Collette, Christopher Plummer, Daniel Craig, Chris Evans, Michael Shannon, Ana de Armas, LaKeith Stanfield, Jaeden Martell, and Katherine Langford in Knives Out (2019)


Video
ID : 1
Format : AVC
Format/Info : Advanced Video Codec
Format profile : High@L4.1
Format settings : CABAC / 4 Ref Frames
Format settings, CABAC : Yes
Format settings, Reference frames : 4 frames
Codec ID : avc1
Codec ID/Info : Advanced Video Coding
Duration : 2 h 10 min
Bit rate : 2 500 kb/s
Width : 1 920 pixels
Height : 1 036 pixels
Display aspect ratio : 1.85:1
Frame rate mode : Constant
Frame rate : 23.976 (23976/1000) FPS
Color space : YUV
Chroma subsampling : 4:2:0
Bit depth : 8 bits
Scan type : Progressive
Bits/(Pixel*Frame) : 0.052
Stream size : 2.27 GiB (92%)
Writing library : x264 core 152 r2851M ba24899


Zvok
ID : 2
Format : AAC LC
Format/Info : Advanced Audio Codec Low Complexity
Codec ID : mp4a-40-2
Duration : 2 h 10 min
Bit rate mode : Constant
Bit rate : 224 kb/s
Channel(s) : 6 channels
Channel layout : C L R Ls Rs LFE
Sampling rate : 48.0 kHz
Frame rate : 46.875 FPS (1024 SPF)
Compression mode : Lossy
Stream size : 208 MiB (8%)
Language : English

IGRAJO

Daniel Craig ... Benoit Blanc
Chris Evans ... Ransom Drysdale
Ana de Armas ... Marta Cabrera
Jamie Lee Curtis ... Linda Drysdale
Michael Shannon ... Walt Thrombey
Don Johnson ... Richard Drysdale

VSEBINA

A detective investigates the death of a patriarch of an eccentric, combative family.






NERON, Gujdek99, ViHaR in 1 ostalim je to všeč.
Delite na socialnem omrežju
Knives.Out.2019.CROSUB.1080p.WEBRip.x264

Jamie Lee Curtis, Don Johnson, Toni Collette, Christopher Plummer, Daniel Craig, Chris Evans, Michael Shannon, Ana de Armas, LaKeith Stanfield, Jaeden Martell, and Katherine Langford in Knives Out (2019)


Video
ID : 1
Format : AVC
Format/Info : Advanced Video Codec
Format profile : High@L4.1
Format settings : CABAC / 4 Ref Frames
Format settings, CABAC : Yes
Format settings, Reference frames : 4 frames
Codec ID : avc1
Codec ID/Info : Advanced Video Coding
Duration : 2 h 10 min
Bit rate : 2 500 kb/s
Width : 1 920 pixels
Height : 1 036 pixels
Display aspect ratio : 1.85:1
Frame rate mode : Constant
Frame rate : 23.976 (23976/1000) FPS
Color space : YUV
Chroma subsampling : 4:2:0
Bit depth : 8 bits
Scan type : Progressive
Bits/(Pixel*Frame) : 0.052
Stream size : 2.27 GiB (92%)
Writing library : x264 core 152 r2851M ba24899


Zvok
ID : 2
Format : AAC LC
Format/Info : Advanced Audio Codec Low Complexity
Codec ID : mp4a-40-2
Duration : 2 h 10 min
Bit rate mode : Constant
Bit rate : 224 kb/s
Channel(s) : 6 channels
Channel layout : C L R Ls Rs LFE
Sampling rate : 48.0 kHz
Frame rate : 46.875 FPS (1024 SPF)
Compression mode : Lossy
Stream size : 208 MiB (8%)
Language : English

IGRAJO

Daniel Craig ... Benoit Blanc
Chris Evans ... Ransom Drysdale
Ana de Armas ... Marta Cabrera
Jamie Lee Curtis ... Linda Drysdale
Michael Shannon ... Walt Thrombey
Don Johnson ... Richard Drysdale

VSEBINA

A detective investigates the death of a patriarch of an eccentric, combative family.






Trenutno še ni nobenega komentarja.
Nič ni najdeno.