Dolittle.2020.SrbSub.1080p.HDRip.x264-[cyd]

Klikni za povečavo!
11-02-2020 06:59 naložil
Sejalci: 2 / Odjemalci: 0 / Velikost: 3.61 GB / Dokončani: 27
Prenesi torrent Poročaj torrent Opis torrenta NFO
Zvrst: Akcija | Pustolovski | Z.F.
Kategorija: FILMI > HDRip

——————————————————————————————————————————————————————————————————
IMDb info:
◎ Naslov: Dolittle
◎ Leto: 2020
◎ Zvrst: akcija, pustolovski, komedija
◎ Jezik: angleški
◎ Ocena: 5,6
◎ Povzetek: A physician who can talk to animals embarks on an adventure to find a legendary island with a young apprentice and a crew of strange pets.
———————————————————————————————————————————————————————————
YouTube URADNI NAPOVEDNIK:
——————————————————————————————————————————————————————————————————
PODNAPISI:
◎ Prevod : SiČa
◎ Jezik : srbski latinica [vstavljeni / softcoded / multiplexed]
——————————————————————————————————————————————————————————————————
VIR:
◎ Source:
Dolittle.2020.1080p.HDRip.x264.AAC2.0-STUTTERSHIT.mp4
◎ After coding:
Dolittle.2020.SrbSub.1080p.HDRip.x264-[cyd].mkv
————————————————————————————————————————————————————-——————
POVEZAVA:
◎ Seedbox NO Speed Limit
—————————————————————————————————————————————-—————————————
Digi72 in ViHaR je to všeč.
Delite na socialnem omrežju
——————————————————————————————————————————————————————————————————
IMDb info:
◎ Naslov: Dolittle
◎ Leto: 2020
◎ Zvrst: akcija, pustolovski, komedija
◎ Jezik: angleški
◎ Ocena: 5,6
◎ Povzetek: A physician who can talk to animals embarks on an adventure to find a legendary island with a young apprentice and a crew of strange pets.
———————————————————————————————————————————————————————————
YouTube URADNI NAPOVEDNIK:
——————————————————————————————————————————————————————————————————
PODNAPISI:
◎ Prevod : SiČa
◎ Jezik : srbski latinica [vstavljeni / softcoded / multiplexed]
——————————————————————————————————————————————————————————————————
VIR:
◎ Source:
Dolittle.2020.1080p.HDRip.x264.AAC2.0-STUTTERSHIT.mp4
◎ After coding:
Dolittle.2020.SrbSub.1080p.HDRip.x264-[cyd].mkv
————————————————————————————————————————————————————-——————
POVEZAVA:
◎ Seedbox NO Speed Limit
—————————————————————————————————————————————-—————————————
Trenutno še ni nobenega komentarja.
###.
.                                          .""--.._
                                           []      `'--.._
                                           ||__           `'-,
                                         `)||_ ```'--..       \
                     _                    /|//}        ``--._  |
                  .'` `'.                /////}              `\/
                 /  .""".\              //{///
                /  /_  _`\\            // `||
                | |(_)(_)||          _//   ||
                | |  /\  )|        _///\   ||
                | |L====J |       / |/ |   ||
               /  /'-..-' /    .'`  \  |   ||
              /   |  :: | |_.-`      |  \  ||
             /|   `\-::.| |          \   | ||
           /` `|   /    | |          |   / ||
         |`    \   |    / /          \  |  ||
        |       `\_|    |/      ,.__. \ |  ||
        /                     /`    `\ ||  ||
       |           .         /        \||  ||
       |                     |         |/  ||
       /         /           |         (   ||
      /          .           /          )  ||
 ------------------------------------------------------------------
|                    Reaper                                        |
 ------------------------------------------------------------------
General
Unique ID                      : 144765825536402190828674827092659579394 (0x6CE8E242D7E9E67FA24EE80DCAF8AA02)
Complete name                  : Dolittle.2020.SloSub.1080p.HDRip.x264-[cyd].mkv
Format                         : Matroska
Format version                 : Version 4
File size                      : 3.61 GiB
Duration                       : 1 h 29 min
Overall bit rate               : 5 761 kb/s
Encoded date                   : UTC 2020-02-10 20:49:29
Writing application            : mkvmerge v22.0.0 ('At The End Of The World') 64-bit
Writing library                : libebml v1.3.5 + libmatroska v1.4.8

Video
ID                             : 1
Format                         : AVC
Format/Info                    : Advanced Video Codec
Format profile                 : High@L4.1
Format settings                : CABAC / 4 Ref Frames
Format settings, CABAC         : Yes
Format settings, ReFrames      : 4 frames
Codec ID                       : V_MPEG4/ISO/AVC
Duration                       : 1 h 29 min
Bit rate                       : 5 500 kb/s
Width                          : 1 920 pixels
Height                         : 1 040 pixels
Display aspect ratio           : 1.85:1
Frame rate mode                : Constant
Frame rate                     : 30.000 FPS
Color space                    : YUV
Chroma subsampling             : 4:2:0
Bit depth                      : 8 bits
Scan type                      : Progressive
Bits/(Pixel*Frame)             : 0.092
Stream size                    : 3.45 GiB (96%)
Writing library                : x264 core 148 r2748 97eaef2
Encoding settings              : cabac=1 / ref=4 / deblock=1:0:0 / analyse=0x3:0x113 / me=umh / subme=9 / psy=1 / psy_rd=1.00:0.00 / mixed_ref=1 / me_range=16 / chroma_me=1 / trellis=2 / 8x8dct=1 / cqm=0 / deadzone=21,11 / fast_pskip=1 / chroma_qp_offset=-2 / threads=72 / lookahead_threads=6 / sliced_threads=0 / nr=0 / decimate=1 / interlaced=0 / bluray_compat=0 / constrained_intra=0 / bframes=3 / b_pyramid=2 / b_adapt=2 / b_bias=0 / direct=3 / weightb=1 / open_gop=0 / weightp=2 / keyint=250 / keyint_min=25 / scenecut=40 / intra_refresh=0 / rc_lookahead=50 / rc=abr / mbtree=1 / bitrate=5500 / ratetol=1.0 / qcomp=0.60 / qpmin=0 / qpmax=69 / qpstep=4 / ip_ratio=1.40 / aq=1:1.00
Language                       : English
Default                        : Yes
Forced                         : No

Audio
ID                             : 2
Format                         : AAC LC
Format/Info                    : Advanced Audio Codec Low Complexity
Codec ID                       : A_AAC-2
Duration                       : 1 h 29 min
Bit rate                       : 256 kb/s
Channel(s)                     : 2 channels
Channel layout                 : L R
Sampling rate                  : 48.0 kHz
Frame rate                     : 46.875 FPS (1024 SPF)
Compression mode               : Lossy
Delay relative to video        : -31 ms
Stream size                    : 164 MiB (4%)
Language                       : English
Default                        : Yes
Forced                         : No

Text
ID                             : 3
Format                         : UTF-8
Codec ID                       : S_TEXT/UTF8
Codec ID/Info                  : UTF-8 Plain Text
Duration                       : 1 h 29 min
Bit rate                       : 58 b/s
Count of elements              : 1101
Stream size                    : 38.3 KiB (0%)
Title                          : prevod SiCa
Language                       : Serbian
Default                        : Yes
Forced                         : Yes