Juzni.vetar.2018.SrbSub.1080p.BDRip.x264

Klikni za povečavo!
12-02-2020 10:26 naložil
Sejalci: 0 / Odjemalci: 0 / Velikost: 9.84 GB / Dokončani: 24
Prenesi torrent Poročaj torrent Opis torrenta NFO
Zvrst: Akcija | Drama | Kriminalka
Kategorija: FILMI > BDRip

——————————————————————————————————————————————————————————————————
IMDb info:
◎ Naslov: Južni vetar - South Wind (2018)
◎ Leto: 2018
◎ Zvrst: kriminalka, drama, triler
◎ Jezik: srbski
◎ Ocena: 8,2
◎ Povzetek: A young member of an underground gang in Belgrade puts himself and his family in danger when he crosses a mafia leader who works for the chief of police.
———————————————————————————————————————————————————————————
YouTube URADNI NAPOVEDNIK:
——————————————————————————————————————————————————————————————————
PODNAPISI:
◎ Prevod : RETAIL
◎ Jezik : srbski latinica [vstavljeni / softcoded / multiplexed]
——————————————————————————————————————————————————————————————————
VIR:
◎ Source:
Juzni.vetar.2018.SrbSub.1080p.BDRip.x264.mkv
————————————————————————————————————————————————————-——————
POVEZAVA:
◎ Seedbox NO Speed Limit
—————————————————————————————————————————————-—————————————
synysa in Ziva je to všeč.
Delite na socialnem omrežju
——————————————————————————————————————————————————————————————————
IMDb info:
◎ Naslov: Južni vetar - South Wind (2018)
◎ Leto: 2018
◎ Zvrst: kriminalka, drama, triler
◎ Jezik: srbski
◎ Ocena: 8,2
◎ Povzetek: A young member of an underground gang in Belgrade puts himself and his family in danger when he crosses a mafia leader who works for the chief of police.
———————————————————————————————————————————————————————————
YouTube URADNI NAPOVEDNIK:
——————————————————————————————————————————————————————————————————
PODNAPISI:
◎ Prevod : RETAIL
◎ Jezik : srbski latinica [vstavljeni / softcoded / multiplexed]
——————————————————————————————————————————————————————————————————
VIR:
◎ Source:
Juzni.vetar.2018.SrbSub.1080p.BDRip.x264.mkv
————————————————————————————————————————————————————-——————
POVEZAVA:
◎ Seedbox NO Speed Limit
—————————————————————————————————————————————-—————————————
Trenutno še ni nobenega komentarja.
###.
.                                          .""--.._
                                           []      `'--.._
                                           ||__           `'-,
                                         `)||_ ```'--..       \
                     _                    /|//}        ``--._  |
                  .'` `'.                /////}              `\/
                 /  .""".\              //{///
                /  /_  _`\\            // `||
                | |(_)(_)||          _//   ||
                | |  /\  )|        _///\   ||
                | |L====J |       / |/ |   ||
               /  /'-..-' /    .'`  \  |   ||
              /   |  :: | |_.-`      |  \  ||
             /|   `\-::.| |          \   | ||
           /` `|   /    | |          |   / ||
         |`    \   |    / /          \  |  ||
        |       `\_|    |/      ,.__. \ |  ||
        /                     /`    `\ ||  ||
       |           .         /        \||  ||
       |                     |         |/  ||
       /         /           |         (   ||
      /          .           /          )  ||
 ------------------------------------------------------------------
|                    Reaper                                        |
 ------------------------------------------------------------------
Complete name : Juzni.vetar.BDRip.1080p.x264 (by OCG).mkv
Format : Matroska
Format version : Version 4
File size : 9.84 GiB
Duration : 2 h 5 min
Overall bit rate : 11.2 Mb/s
Encoded date : UTC 2019-11-04 23:30:22
Writing application : mkvmerge v37.0.0 ('Leave It') 64-bit
Writing library : libebml v1.3.9 + libmatroska v1.5.2

Video
ID : 1
Format : AVC
Format/Info : Advanced Video Codec
Format profile : High@L4.1
Format settings : CABAC / 5 Ref Frames
Format settings, CABAC : Yes
Format settings, Reference frames : 5 frames
Codec ID : V_MPEG4/ISO/AVC
Duration : 2 h 5 min
Bit rate : 8 224 kb/s
Width : 1 920 pixels
Height : 808 pixels
Display aspect ratio : 2.40:1
Frame rate mode : Constant
Frame rate : 25.000 FPS
Color space : YUV
Chroma subsampling : 4:2:0
Bit depth : 8 bits
Scan type : Progressive
Bits/(Pixel*Frame) : 0.212
Stream size : 7.20 GiB (73%)
Writing library : x264 core 155 r2901 7d0ff22
Encoding settings : cabac=1 / ref=5 / deblock=1:-3:-3 / analyse=0x3:0x113 / me=umh / subme=10 / psy=1 / psy_rd=1.00:0.00 / mixed_ref=1 / me_range=24 / chroma_me=1 / trellis=2 / 8x8dct=1 / cqm=0 / deadzone=21,11 / fast_pskip=1 / chroma_qp_offset=-2 / threads=24 / lookahead_threads=4 / sliced_threads=0 / nr=0 / decimate=1 / interlaced=0 / bluray_compat=0 / constrained_intra=0 / bframes=8 / b_pyramid=2 / b_adapt=2 / b_bias=0 / direct=3 / weightb=1 / open_gop=0 / weightp=2 / keyint=240 / keyint_min=24 / scenecut=40 / intra_refresh=0 / rc_lookahead=60 / rc=2pass / mbtree=1 / bitrate=8224 / ratetol=1.0 / qcomp=0.60 / qpmin=0 / qpmax=69 / qpstep=4 / cplxblur=20.0 / qblur=0.5 / ip_ratio=1.40 / aq=1:1.00
Default : Yes
Forced : No
Color range : Limited
Color primaries : BT.709
Transfer characteristics : BT.709
Matrix coefficients : BT.709

Audio #1
ID : 2
Format : DTS
Format/Info : Digital Theater Systems
Codec ID : A_DTS
Duration : 2 h 5 min
Bit rate mode : Constant
Bit rate : 1 509 kb/s
Channel(s) : 6 channels
Channel layout : C L R Ls Rs LFE
Sampling rate : 48.0 kHz
Frame rate : 93.750 FPS (512 SPF)
Bit depth : 16 bits
Compression mode : Lossy
Stream size : 1.32 GiB (13%)
Title : ############
Language : Serbian
Default : Yes
Forced : No

Audio #2
ID : 3
Format : DTS
Format/Info : Digital Theater Systems
Codec ID : A_DTS
Duration : 2 h 5 min
Bit rate mode : Constant
Bit rate : 1 509 kb/s
Channel(s) : 6 channels
Channel layout : C L R Ls Rs LFE
Sampling rate : 48.0 kHz
Frame rate : 93.750 FPS (512 SPF)
Bit depth : 16 bits
Compression mode : Lossy
Stream size : 1.32 GiB (13%)
Title : Fran##ais
Language : French
Default : No
Forced : No

Text #1
ID : 4
Format : UTF-8
Codec ID : S_TEXT/UTF8
Codec ID/Info : UTF-8 Plain Text
Duration : 1 h 59 min
Bit rate : 54 b/s
Count of elements : 1361
Stream size : 47.8 KiB (0%)
Title : English
Language : English
Default : No
Forced : No

Text #2
ID : 5
Format : UTF-8
Codec ID : S_TEXT/UTF8
Codec ID/Info : UTF-8 Plain Text
Duration : 1 h 58 min
Bit rate : 58 b/s
Count of elements : 1343
Stream size : 50.9 KiB (0%)
Title : Fran##ais
Language : French
Default : No
Forced : No

Text #3
ID : 6
Format : UTF-8
Codec ID : S_TEXT/UTF8
Codec ID/Info : UTF-8 Plain Text
Duration : 1 h 11 min
Bit rate : 1 b/s
Count of elements : 24
Stream size : 983 Bytes (0%)
Title : ############
Language : Serbian
Default : Yes
Forced : No

Text #4
ID : 7
Format : UTF-8
Codec ID : S_TEXT/UTF8
Codec ID/Info : UTF-8 Plain Text
Duration : 1 h 11 min
Bit rate : 1 b/s
Count of elements : 24
Stream size : 579 Bytes (0%)
Title : Srpskohrvatski
Language : sla
Default : No
Forced : No

Text #5
ID : 8
Format : UTF-8
Codec ID : S_TEXT/UTF8
Codec ID/Info : UTF-8 Plain Text
Duration : 1 h 59 min
Bit rate : 92 b/s
Count of elements : 1356
Stream size : 80.8 KiB (0%)
Title : ##############
Language : Russian
Default : No
Forced : No

Menu
00:00:00.000 : en:(01)00:00:00:000
00:09:55.360 : en:(02)00:09:55:360
00:20:36.160 : en:(03)00:20:36:160
00:32:45.720 : en:(04)00:32:45:720
00:40:26.240 : en:(05)00:40:26:240
00:49:45.520 : en:(06)00:49:45:520
01:00:14.840 : en:(07)01:00:14:840
01:09:56.000 : en:(08)01:09:56:000
01:23:13.400 : en:(09)01:23:13:400
01:30:31.000 : en:(10)01:30:31:000
01:40:39.440 : en:(11)01:40:39:440
01:49:55.680 : en:(12)01:49:55:680