A.Shaun.The.Sheep.Movie.Farmageddon.2019.SloSub.1080p.BluRay.x264.AAC-[cyd]

Klikni za povečavo!
13-02-2020 17:44 naložil
Sejalci: 0 / Odjemalci: 0 / Velikost: 1.54 GB / Dokončani: 10
Prenesi torrent Magnet Link Poročaj torrent Opis torrenta NFO
Kategorija: FILMI > BluRay-1080

——————————————————————————————————————————————————————————————————
IMDb info:
◎ Naslov: A Shaun the Sheep Movie: Farmageddon
◎ Leto: 2019
◎ Zvrst: animirani, pustolovski, komedija
◎ Jezik: angleški
◎ Ocena: 7,00
◎ Povzetek: When an alien with amazing powers crash-lands near Mossy Bottom Farm, Shaun the Sheep goes on a mission to shepherd the intergalactic visitor home before a sinister organization can capture her.
———————————————————————————————————————————————————————————
YouTube URADNI NAPOVEDNIK:
——————————————————————————————————————————————————————————————————
PODNAPISI:
◎ Prevod: metalcamp, tehnična obdelava DVD Rippers Slovenija
◎ Jezik : slovenski [vstavljeni / softcoded / multiplexed]
——————————————————————————————————————————————————————————————————
VIR:
◎ Source:
A.Shaun.The.Sheep.Movie.Farmageddon.2019.1080p.BluRay.x264.AAC-[YTS.LT].mp4
◎ After coding:
A.Shaun.The.Sheep.Movie.Farmageddon.2019.SloSub.1080p.BluRay.x264.AAC-[cyd].mkv
————————————————————————————————————————————————————-——————
POVEZAVA:
◎ Seedbox NO Speed Limit
—————————————————————————————————————————————-—————————————
Delite na socialnem omrežju
——————————————————————————————————————————————————————————————————
IMDb info:
◎ Naslov: A Shaun the Sheep Movie: Farmageddon
◎ Leto: 2019
◎ Zvrst: animirani, pustolovski, komedija
◎ Jezik: angleški
◎ Ocena: 7,00
◎ Povzetek: When an alien with amazing powers crash-lands near Mossy Bottom Farm, Shaun the Sheep goes on a mission to shepherd the intergalactic visitor home before a sinister organization can capture her.
———————————————————————————————————————————————————————————
YouTube URADNI NAPOVEDNIK:
——————————————————————————————————————————————————————————————————
PODNAPISI:
◎ Prevod: metalcamp, tehnična obdelava DVD Rippers Slovenija
◎ Jezik : slovenski [vstavljeni / softcoded / multiplexed]
——————————————————————————————————————————————————————————————————
VIR:
◎ Source:
A.Shaun.The.Sheep.Movie.Farmageddon.2019.1080p.BluRay.x264.AAC-[YTS.LT].mp4
◎ After coding:
A.Shaun.The.Sheep.Movie.Farmageddon.2019.SloSub.1080p.BluRay.x264.AAC-[cyd].mkv
————————————————————————————————————————————————————-——————
POVEZAVA:
◎ Seedbox NO Speed Limit
—————————————————————————————————————————————-—————————————
Trenutno še ni nobenega komentarja.
###.
.                                          .""--.._
                                           []      `'--.._
                                           ||__           `'-,
                                         `)||_ ```'--..       \
                     _                    /|//}        ``--._  |
                  .'` `'.                /////}              `\/
                 /  .""".\              //{///
                /  /_  _`\\            // `||
                | |(_)(_)||          _//   ||
                | |  /\  )|        _///\   ||
                | |L====J |       / |/ |   ||
               /  /'-..-' /    .'`  \  |   ||
              /   |  :: | |_.-`      |  \  ||
             /|   `\-::.| |          \   | ||
           /` `|   /    | |          |   / ||
         |`    \   |    / /          \  |  ||
        |       `\_|    |/      ,.__. \ |  ||
        /                     /`    `\ ||  ||
       |           .         /        \||  ||
       |                     |         |/  ||
       /         /           |         (   ||
      /          .           /          )  ||
 ------------------------------------------------------------------
|                    Reaper                                        |
 ------------------------------------------------------------------
General
Unique ID                      : 97373604976157536996170160355143752708 (0x49417962A8728903D4E60673A0429C04)
Complete name                  : A.Shaun.The.Sheep.Movie.Farmageddon.2019.SloSub.1080p.BluRay.x264.AAC-[cyd].mkv
Format                         : Matroska
Format version                 : Version 4
File size                      : 1.54 GiB
Duration                       : 1 h 26 min
Overall bit rate               : 2 538 kb/s
Encoded date                   : UTC 2020-02-12 20:06:10
Writing application            : mkvmerge v22.0.0 ('At The End Of The World') 64-bit
Writing library                : libebml v1.3.5 + libmatroska v1.4.8

Video
ID                             : 1
Format                         : AVC
Format/Info                    : Advanced Video Codec
Format profile                 : High@L4.1
Format settings                : CABAC / 4 Ref Frames
Format settings, CABAC         : Yes
Format settings, ReFrames      : 4 frames
Codec ID                       : V_MPEG4/ISO/AVC
Duration                       : 1 h 26 min
Bit rate                       : 2 250 kb/s
Width                          : 1 920 pixels
Height                         : 800 pixels
Display aspect ratio           : 2.40:1
Frame rate mode                : Constant
Frame rate                     : 24.000 FPS
Color space                    : YUV
Chroma subsampling             : 4:2:0
Bit depth                      : 8 bits
Scan type                      : Progressive
Bits/(Pixel*Frame)             : 0.061
Stream size                    : 1.36 GiB (89%)
Writing library                : x264 core 158
Encoding settings              : cabac=1 / ref=4 / deblock=1:-1:-1 / analyse=0x3:0x133 / me=umh / subme=9 / psy=1 / psy_rd=1.00:0.15 / mixed_ref=1 / me_range=24 / chroma_me=1 / trellis=2 / 8x8dct=1 / cqm=0 / deadzone=21,11 / fast_pskip=0 / chroma_qp_offset=-3 / threads=12 / lookahead_threads=1 / sliced_threads=0 / nr=0 / decimate=1 / interlaced=0 / bluray_compat=0 / constrained_intra=0 / bframes=3 / b_pyramid=2 / b_adapt=2 / b_bias=0 / direct=3 / weightb=1 / open_gop=0 / weightp=2 / keyint=250 / keyint_min=23 / scenecut=40 / intra_refresh=0 / rc_lookahead=60 / rc=2pass / mbtree=1 / bitrate=2250 / ratetol=1.0 / qcomp=0.60 / qpmin=0 / qpmax=69 / qpstep=4 / cplxblur=20.0 / qblur=0.5 / vbv_maxrate=31250 / vbv_bufsize=31250 / nal_hrd=none / filler=0 / ip_ratio=1.40 / aq=1:1.00
Language                       : English
Default                        : Yes
Forced                         : No

Audio
ID                             : 2
Format                         : AAC LC
Format/Info                    : Advanced Audio Codec Low Complexity
Codec ID                       : A_AAC-2
Duration                       : 1 h 26 min
Bit rate                       : 288 kb/s
Channel(s)                     : 6 channels
Channel layout                 : C L R Ls Rs LFE
Sampling rate                  : 48.0 kHz
Frame rate                     : 46.875 FPS (1024 SPF)
Compression mode               : Lossy
Delay relative to video        : -21 ms
Stream size                    : 179 MiB (11%)
Language                       : English
Default                        : Yes
Forced                         : No

Text
ID                             : 3
Format                         : UTF-8
Codec ID                       : S_TEXT/UTF8
Codec ID/Info                  : UTF-8 Plain Text
Duration                       : 1 h 16 min
Bit rate                       : 2 b/s
Count of elements              : 63
Stream size                    : 1.14 KiB (0%)
Title                          : Prevedel metalcamp, tehnicna obdelava DVD Rippers Slovenija
Language                       : Slovenian
Default                        : Yes
Forced                         : No