Abominable.2019.SloSINH.1080p.BluRay.x264.AAC-[cyd]

Klikni za povečavo!
14-02-2020 11:47 naložil
Sejalci: 1 / Odjemalci: 0 / Velikost: 2 GB / Dokončani: 94
Prenesi torrent Magnet Link Poročaj torrent Opis torrenta NFO
Kategorija: FILMI > BluRay-1080

——————————————————————————————————————————————————————————————————
IMDb info:
◎ Naslov: Mali jeti - Abominable
◎ Leto: 2019
◎ Zvrst: animirani, pustolovski, komedija
◎ Jezik: slovenski
◎ Ocena: 7,00
◎ Povzetek: Ko najstnica Yi na strehi svojega bloka v Šanghaju naleti na mladega jetija, ga s svojima neustrašnima prijateljema Jinom in Pengom poimenuje Everest. Vsi skupaj se odpravijo na epsko popotovanje na najvišjo goro na svetu, da bi magicno bitje znova našlo svoje starše in dom.
———————————————————————————————————————————————————————————
YouTube URADNI NAPOVEDNIK:
——————————————————————————————————————————————————————————————————
SLO GLASOVI:
◎ Zala Djuric Ribič, Luka Markus Štajer, Gal Žilavec, Alenka Tetičkovič, Pavel Ravnohrib, Žiga Bunič, Nina Skrbinšek, Aja kobe, Gregor Lavtar
——————————————————————————————————————————————————————————————————
VIR:
◎ Source:
Abominable.2019.1080p.BluRay.H264.AAC-RARBG.mp4
◎ After coding:
Abominable.2019.SloSINH.1080p.BluRay.x264.AAC-[cyd].mkv
————————————————————————————————————————————————————-——————
POVEZAVA:
◎ Seedbox NO Speed Limit
——————————————————————————————————————————————————————————————————
HERMANZ in martin77 je to všeč.
Delite na socialnem omrežju
——————————————————————————————————————————————————————————————————
IMDb info:
◎ Naslov: Mali jeti - Abominable
◎ Leto: 2019
◎ Zvrst: animirani, pustolovski, komedija
◎ Jezik: slovenski
◎ Ocena: 7,00
◎ Povzetek: Ko najstnica Yi na strehi svojega bloka v Šanghaju naleti na mladega jetija, ga s svojima neustrašnima prijateljema Jinom in Pengom poimenuje Everest. Vsi skupaj se odpravijo na epsko popotovanje na najvišjo goro na svetu, da bi magicno bitje znova našlo svoje starše in dom.
———————————————————————————————————————————————————————————
YouTube URADNI NAPOVEDNIK:
——————————————————————————————————————————————————————————————————
SLO GLASOVI:
◎ Zala Djuric Ribič, Luka Markus Štajer, Gal Žilavec, Alenka Tetičkovič, Pavel Ravnohrib, Žiga Bunič, Nina Skrbinšek, Aja kobe, Gregor Lavtar
——————————————————————————————————————————————————————————————————
VIR:
◎ Source:
Abominable.2019.1080p.BluRay.H264.AAC-RARBG.mp4
◎ After coding:
Abominable.2019.SloSINH.1080p.BluRay.x264.AAC-[cyd].mkv
————————————————————————————————————————————————————-——————
POVEZAVA:
◎ Seedbox NO Speed Limit
——————————————————————————————————————————————————————————————————
Trenutno še ni nobenega komentarja.
###.
.                                          .""--.._
                                           []      `'--.._
                                           ||__           `'-,
                                         `)||_ ```'--..       \
                     _                    /|//}        ``--._  |
                  .'` `'.                /////}              `\/
                 /  .""".\              //{///
                /  /_  _`\\            // `||
                | |(_)(_)||          _//   ||
                | |  /\  )|        _///\   ||
                | |L====J |       / |/ |   ||
               /  /'-..-' /    .'`  \  |   ||
              /   |  :: | |_.-`      |  \  ||
             /|   `\-::.| |          \   | ||
           /` `|   /    | |          |   / ||
         |`    \   |    / /          \  |  ||
        |       `\_|    |/      ,.__. \ |  ||
        /                     /`    `\ ||  ||
       |           .         /        \||  ||
       |                     |         |/  ||
       /         /           |         (   ||
      /          .           /          )  ||
 ------------------------------------------------------------------
|                    Reaper                                        |
 ------------------------------------------------------------------
General
Unique ID                      : 290151977658091206742369544230856240003 (0xDA493CFBF3D448E2A91F977E3C932B83)
Complete name                  : Abominable.2019.SLOSiNH.1080p.BluRay.x264.AAC-[cyd].mkv
Format                         : Matroska
Format version                 : Version 4
File size                      : 2.00 GiB
Duration                       : 1 h 37 min
Overall bit rate               : 2 949 kb/s
Encoded date                   : UTC 2020-02-14 06:06:00
Writing application            : mkvmerge v22.0.0 ('At The End Of The World') 64-bit
Writing library                : libebml v1.3.5 + libmatroska v1.4.8

Video
ID                             : 1
Format                         : AVC
Format/Info                    : Advanced Video Codec
Format profile                 : High@L4.1
Format settings                : CABAC / 4 Ref Frames
Format settings, CABAC         : Yes
Format settings, ReFrames      : 4 frames
Codec ID                       : V_MPEG4/ISO/AVC
Duration                       : 1 h 37 min
Bit rate                       : 2 500 kb/s
Width                          : 1 920 pixels
Height                         : 1 040 pixels
Display aspect ratio           : 1.85:1
Frame rate mode                : Constant
Frame rate                     : 23.976 (23976/1000) FPS
Color space                    : YUV
Chroma subsampling             : 4:2:0
Bit depth                      : 8 bits
Scan type                      : Progressive
Bits/(Pixel*Frame)             : 0.052
Stream size                    : 1.70 GiB (85%)
Writing library                : x264 core 152 r2851M ba24899
Encoding settings              : cabac=1 / ref=4 / deblock=1:-1:-1 / analyse=0x3:0x113 / me=umh / subme=9 / psy=1 / psy_rd=1.00:0.15 / mixed_ref=1 / me_range=24 / chroma_me=1 / trellis=2 / 8x8dct=1 / cqm=0 / deadzone=21,11 / fast_pskip=1 / chroma_qp_offset=-3 / threads=32 / lookahead_threads=4 / sliced_threads=0 / nr=0 / decimate=1 / interlaced=0 / bluray_compat=0 / constrained_intra=0 / bframes=3 / b_pyramid=2 / b_adapt=2 / b_bias=0 / direct=3 / weightb=1 / open_gop=0 / weightp=2 / keyint=250 / keyint_min=25 / scenecut=40 / intra_refresh=0 / rc_lookahead=50 / rc=2pass / mbtree=1 / bitrate=2500 / ratetol=1.0 / qcomp=0.60 / qpmin=0 / qpmax=69 / qpstep=4 / cplxblur=20.0 / qblur=0.5 / vbv_maxrate=31250 / vbv_bufsize=31250 / nal_hrd=none / filler=0 / ip_ratio=1.40 / aq=3:1.00
Language                       : English
Default                        : Yes
Forced                         : No

Audio
ID                             : 2
Format                         : AC-3
Format/Info                    : Audio Coding 3
Commercial name                : Dolby Digital
Codec ID                       : A_AC3
Duration                       : 1 h 37 min
Bit rate mode                  : Constant
Bit rate                       : 448 kb/s
Channel(s)                     : 6 channels
Channel layout                 : L R C LFE Ls Rs
Sampling rate                  : 48.0 kHz
Frame rate                     : 31.250 FPS (1536 SPF)
Bit depth                      : 16 bits
Compression mode               : Lossy
Stream size                    : 312 MiB (15%)
Language                       : Slovenian
Service kind                   : Complete Main
Default                        : Yes
Forced                         : No