Manifest.S02.SrbSubs.720p.AMZN.WEBRip.DDP5.1.x264-AJP69

Klikni za povečavo!
15-04-2020 20:06 naložil System
Sejalci: 1 / Odjemalci: 0 / Velikost: 17.26 GB / Dokončani: 4
Prenesi torrent Magnet Link Poročaj torrent Opis torrenta NFO
Zvrst: Drama | Skrivnosten
Kategorija: FILMI > WEBRip-720
Anonimen nalagalec

——————————————————————————————————————————————————————————————————
IMDb info:
———————————————————————————————————————————————————————————
YouTube URADNI NAPOVEDNIK:
——————————————————————————————————————————————————————————————————
PODNAPISI:
◎ Jezik : srbski latinica
——————————————————————————————————————————————————————————————————
VIR:
◎ Source:
Manifest.S02.SrbSubs.720p.AMZN.WEBRip.DDP5.1.x264-AJP69
———————————————————————————————————————————————————————————
POVEZAVA:
◎ Seedbox, speed Limit: NO
———————————————————————————————————————————————————————————
———————————————————————————————————————————————————————————
bodo je to všeč
Delite na socialnem omrežju
——————————————————————————————————————————————————————————————————
IMDb info:
———————————————————————————————————————————————————————————
YouTube URADNI NAPOVEDNIK:
——————————————————————————————————————————————————————————————————
PODNAPISI:
◎ Jezik : srbski latinica
——————————————————————————————————————————————————————————————————
VIR:
◎ Source:
Manifest.S02.SrbSubs.720p.AMZN.WEBRip.DDP5.1.x264-AJP69
———————————————————————————————————————————————————————————
POVEZAVA:
◎ Seedbox, speed Limit: NO
———————————————————————————————————————————————————————————
———————————————————————————————————————————————————————————
Trenutno še ni nobenega komentarja.
###.
.                                          .""--.._
                                           []      `'--.._
                                           ||__           `'-,
                                         `)||_ ```'--..       \
                     _                    /|//}        ``--._  |
                  .'` `'.                /////}              `\/
                 /  .""".\              //{///
                /  /_  _`\\            // `||
                | |(_)(_)||          _//   ||
                | |  /\  )|        _///\   ||
                | |L====J |       / |/ |   ||
               /  /'-..-' /    .'`  \  |   ||
              /   |  :: | |_.-`      |  \  ||
             /|   `\-::.| |          \   | ||
           /` `|   /    | |          |   / ||
         |`    \   |    / /          \  |  ||
        |       `\_|    |/      ,.__. \ |  ||
        /                     /`    `\ ||  ||
       |           .         /        \||  ||
       |                     |         |/  ||
       /         /           |         (   ||
      /          .           /          )  ||
 ------------------------------------------------------------------
|                                                                  |
 ------------------------------------------------------------------
General
Unique ID                      : 185696863423289442885784603247029564744 (0x8BB3EA3C6DC47B24BC6DD686EAC4B548)
Complete name                  : Manifest.S02.SrbSubs.720p.AMZN.WEBRip.DDP5.1.x264-AJP69
Format                         : Matroska
Format version                 : Version 4
Overall bit rate               : 4 234 kb/s
Encoded date                   : UTC 2020-04-10 18:41:17
Writing application            : mkvmerge v22.0.0 ('At The End Of The World') 64-bit
Writing library                : libebml v1.3.5 + libmatroska v1.4.8

Video
ID                             : 1
Format                         : AVC
Format/Info                    : Advanced Video Codec
Format profile                 : High@L3.1
Format settings                : CABAC / 4 Ref Frames
Format settings, CABAC         : Yes
Format settings, ReFrames      : 4 frames
Codec ID                       : V_MPEG4/ISO/AVC
Bit rate mode                  : Constant
Bit rate                       : 3 592 kb/s
Nominal bit rate               : 6 000 kb/s
Width                          : 1 280 pixels
Height                         : 720 pixels
Display aspect ratio           : 16:9
Frame rate mode                : Constant
Frame rate                     : 23.976 (24000/1001) FPS
Color space                    : YUV
Chroma subsampling             : 4:2:0
Bit depth                      : 8 bits
Scan type                      : Progressive
Bits/(Pixel*Frame)             : 0.163
Stream size                    : 1.08 GiB (85%)
Language                       : English
Default                        : Yes
Forced                         : No
Color range                    : Limited
Color primaries                : BT.709
Transfer characteristics       : BT.709
Matrix coefficients            : BT.709

Audio
ID                             : 2
Format                         : E-AC-3
Format/Info                    : Enhanced AC-3
Commercial name                : Dolby Digital Plus
Codec ID                       : A_EAC3
Bit rate mode                  : Constant
Bit rate                       : 640 kb/s
Channel(s)                     : 6 channels
Channel layout                 : L R C LFE Ls Rs
Sampling rate                  : 48.0 kHz
Frame rate                     : 31.250 FPS (1536 SPF)
Compression mode               : Lossy
Stream size                    : 197 MiB (15%)
Language                       : English
Service kind                   : Complete Main
Default                        : Yes
Forced                         : No

Text #1
ID                             : 3
Format                         : UTF-8
Codec ID                       : S_TEXT/UTF8
Codec ID/Info                  : UTF-8 Plain Text
Duration                       : 42 min 23 s
Bit rate                       : 58 b/s
Count of elements              : 451
Stream size                    : 18.2 KiB (0%)
Language                       : Serbian
Default                        : Yes
Forced                         : Yes

Text #2
ID                             : 4
Format                         : UTF-8
Codec ID                       : S_TEXT/UTF8
Codec ID/Info                  : UTF-8 Plain Text
Duration                       : 40 min 12 s
Bit rate                       : 68 b/s
Count of elements              : 697
Stream size                    : 20.1 KiB (0%)
Language                       : English
Default                        : No
Forced                         : No

Text #3
ID                             : 5
Format                         : UTF-8
Codec ID                       : S_TEXT/UTF8
Codec ID/Info                  : UTF-8 Plain Text
Duration                       : 42 min 52 s
Bit rate                       : 71 b/s
Count of elements              : 897
Stream size                    : 22.6 KiB (0%)
Title                          : SDH
Language                       : English
Default                        : No
Forced                         : No
               /////////////////////////////Podnapisi//////////////////////////
              - Vstavljeni////////////////////////////////////////////////////
             ////////////////////////////////////////////////////////////////
            - Softcoded (they can be turned off by using the option in your/
           media playeror a shortcut button (V for VLC Media Player).//////
          ////////////////////////////////////////////////////////////////
         - Multiplexed  ( muxed (Multiplexed), It means that there are///
        no .txt or .subfile files associated with the video instead/////
       the subtitle comes within the video  Which means that you///////
      cannot use those subtitles for some other videos unless/////////
     you extract those subtitles from that video using a third///////
    party software.)////////////////////////////////////////////////
   ////////////////////////////////////////////////////////////////
  /////////Coded by: [cyd]////////////////////////////////////////
 ///////////////////////Downloaded from videoteka.org////////////
////////////////////////////////////////////////////////Reaper//