Awoken.2019.SrbSub.1080p.WEB.x265-[cyd]

Klikni za povečavo!
20-05-2020 09:51 naložil
Sejalci: 0 / Odjemalci: 0 / Velikost: 1.37 GB / Dokončani: 9
Prenesi torrent Magnet Link Poročaj torrent Opis torrenta NFO
Kategorija:

IMDb info:
◎ Naslov, leto, dolžina, zvrst: Awoken (2019) 1h 28min | Horror, Mystery, Thriller
◎ Povzetek: A young medical student attempts to cure her brother from a terminal sleep illness called Fatal Familial Insomnia, where you are unable to sleep until you die. On her quest to help him, a ...
———————————————————————————————————————————————————————————
NAPOVEDNIK:
——————————————————————————————————————————————————————————————————
PODNAPISI:
◎ Jezik : srbski latinica [vstavljeni / softcoded / multiplexed]
—————————————————————————————————————————————————————————————————
VIR:
◎ Source:
Awoken.2019.1080p.WEBRip.x265-RARBG.mp4
◎ After coding:
Awoken.2019.SrbSub.1080p.WEB.x265-[cyd].mkv
———————————————————————————————————————————————————————————
POVEZAVA:
◎ Seedbox, upload speed: 20000 Mbps
———————————————————————————————————————————————————————————
apathy, Ziva in martin1954 je to všeč.
Delite na socialnem omrežju
IMDb info:
◎ Naslov, leto, dolžina, zvrst: Awoken (2019) 1h 28min | Horror, Mystery, Thriller
◎ Povzetek: A young medical student attempts to cure her brother from a terminal sleep illness called Fatal Familial Insomnia, where you are unable to sleep until you die. On her quest to help him, a ...
———————————————————————————————————————————————————————————
NAPOVEDNIK:
——————————————————————————————————————————————————————————————————
PODNAPISI:
◎ Jezik : srbski latinica [vstavljeni / softcoded / multiplexed]
—————————————————————————————————————————————————————————————————
VIR:
◎ Source:
Awoken.2019.1080p.WEBRip.x265-RARBG.mp4
◎ After coding:
Awoken.2019.SrbSub.1080p.WEB.x265-[cyd].mkv
———————————————————————————————————————————————————————————
POVEZAVA:
◎ Seedbox, upload speed: 20000 Mbps
———————————————————————————————————————————————————————————
Trenutno še ni nobenega komentarja.
###.
.                                          .""--.._
                                           []      `'--.._
                                           ||__           `'-,
                                         `)||_ ```'--..       \
                     _                    /|//}        ``--._  |
                  .'` `'.                /////}              `\/
                 /  .""".\              //{///
                /  /_  _`\\            // `||
                | |(_)(_)||          _//   ||
                | |  /\  )|        _///\   ||
                | |L====J |       / |/ |   ||
               /  /'-..-' /    .'`  \  |   ||
              /   |  :: | |_.-`      |  \  ||
             /|   `\-::.| |          \   | ||
           /` `|   /    | |          |   / ||
         |`    \   |    / /          \  |  ||
        |       `\_|    |/      ,.__. \ |  ||
        /                     /`    `\ ||  ||
       |           .         /        \||  ||
       |                     |         |/  ||
       /         /           |         (   ||
      /          .           /          )  ||
 ------------------------------------------------------------------
|                                                                  |
 ------------------------------------------------------------------
General
Unique ID                      : 303014028760480753622359707148302334043 (0xE3F661105CCF37088FCD31BD0752B85B)
Complete name                  : Awoken.2019.SrbSub.1080p.WEB.x265-[cyd].mkv
Format                         : Matroska
Format version                 : Version 4
File size                      : 1.37 GiB
Duration                       : 1 h 27 min
Overall bit rate               : 2 227 kb/s
Encoded date                   : UTC 2020-05-20 09:47:58
Writing application            : mkvmerge v46.0.0 ('No Deeper Escape') 64-bit
Writing library                : libebml v1.3.10 + libmatroska v1.5.2

Video
ID                             : 1
Format                         : HEVC
Format/Info                    : High Efficiency Video Coding
Format profile                 : Main 10@L4@Main
Codec ID                       : V_MPEGH/ISO/HEVC
Duration                       : 1 h 27 min
Bit rate                       : 2 001 kb/s
Width                          : 1 920 pixels
Height                         : 800 pixels
Display aspect ratio           : 2.40:1
Frame rate mode                : Constant
Frame rate                     : 23.976 (24000/1001) FPS
Color space                    : YUV
Chroma subsampling             : 4:2:0
Bit depth                      : 10 bits
Bits/(Pixel*Frame)             : 0.054
Stream size                    : 1.23 GiB (90%)
Writing library                : x265 3.3+4-rarbg-30eb4de83092:[Linux][GCC 8.3.1][64 bit] 10bit
Encoding settings              : cpuid=1111039 / frame-threads=4 / wpp / no-pmode / no-pme / no-psnr / no-ssim / log-level=2 / input-csp=1 / input-res=1920x800 / interlace=0 / total-frames=0 / level-idc=0 / high-tier=1 / uhd-bd=0 / ref=4 / no-allow-non-conformance / no-repeat-headers / annexb / no-aud / no-hrd / info / hash=0 / no-temporal-layers / open-gop / min-keyint=23 / keyint=250 / gop-lookahead=0 / bframes=4 / b-adapt=2 / b-pyramid / bframe-bias=0 / rc-lookahead=25 / lookahead-slices=4 / scenecut=40 / hist-scenecut=0 / radl=0 / no-splice / no-intra-refresh / ctu=64 / min-cu-size=8 / rect / no-amp / max-tu-size=32 / tu-inter-depth=1 / tu-intra-depth=1 / limit-tu=0 / rdoq-level=2 / dynamic-rd=0.00 / no-ssim-rd / signhide / no-tskip / nr-intra=0 / nr-inter=0 / no-constrained-intra / strong-intra-smoothing / max-merge=3 / limit-refs=3 / limit-modes / me=3 / subme=3 / merange=57 / temporal-mvp / no-frame-dup / no-hme / weightp / no-weightb / no-analyze-src-pics / deblock=0:0 / no-sao / no-sao-non-deblock / rd=4 / selective-sao=0 / no-early-skip / rskip / no-fast-intra / no-tskip-fast / no-cu-lossless / no-b-intra / no-splitrd-skip / rdpenalty=0 / psy-rd=2.00 / psy-rdoq=1.00 / no-rd-refine / no-lossless / cbqpoffs=0 / crqpoffs=0 / rc=abr / bitrate=2000 / qcomp=0.60 / qpstep=4 / stats-write=0 / stats-read=2 / cplxblur=20.0 / qblur=0.5 / ipratio=1.40 / pbratio=1.30 / aq-mode=3 / aq-strength=1.00 / cutree / zone-count=0 / no-strict-cbr / qg-size=32 / no-rc-grain / qpmax=69 / qpmin=0 / no-const-vbv / sar=1 / overscan=0 / videoformat=5 / range=0 / colorprim=2 / transfer=2 / colormatrix=2 / chromaloc=0 / display-window=0 / cll=0,0 / min-luma=0 / max-luma=1023 / log2-max-poc-lsb=8 / vui-timing-info / vui-hrd-info / slices=1 / no-opt-qp-pps / no-opt-ref-list-length-pps / no-multi-pass-opt-rps / scenecut-bias=0.05 / hist-threshold=0.01 / no-opt-cu-delta-qp / no-aq-motion / no-hdr10 / no-hdr10-opt / no-dhdr10-opt / no-idr-recovery-sei / analysis-reuse-level=0 / analysis-save-reuse-level=0 / analysis-load-reuse-level=0 / scale-factor=0 / refine-intra=0 / refine-inter=0 / refine-mv=1 / refine-ctu-distortion=0 / no-limit-sao / ctu-info=0 / no-lowpass-dct / refine-analysis-type=0 / copy-pic=1 / max-ausize-factor=1.0 / no-dynamic-refine / no-single-sei / no-hevc-aq / no-svt / no-field / qp-adaptation-range=1.00 / no-scenecut-aware-qpconformance-window-offsets / right=0 / bottom=0
Language                       : English
Default                        : Yes
Forced                         : No

Audio
ID                             : 2
Format                         : AAC LC
Format/Info                    : Advanced Audio Codec Low Complexity
Codec ID                       : A_AAC-2
Duration                       : 1 h 27 min
Bit rate                       : 224 kb/s
Channel(s)                     : 6 channels
Channel layout                 : C L R Ls Rs LFE
Sampling rate                  : 48.0 kHz
Frame rate                     : 46.875 FPS (1024 SPF)
Compression mode               : Lossy
Delay relative to video        : -43 ms
Stream size                    : 141 MiB (10%)
Language                       : English
Default                        : Yes
Forced                         : No

Text
ID                             : 3
Format                         : UTF-8
Codec ID                       : S_TEXT/UTF8
Codec ID/Info                  : UTF-8 Plain Text
Duration                       : 1 h 23 min
Bit rate                       : 31 b/s
Count of elements              : 591
Stream size                    : 19.2 KiB (0%)
Title                          : SRB - latin
Language                       : Serbian
Default                        : Yes
Forced                         : No                
               /////////////////////////////Podnapisi//////////////////////////
              - Vstavljeni////////////////////////////////////////////////////
             ////////////////////////////////////////////////////////////////
            - Softcoded (they can be turned off by using the option in your/
           media playeror a shortcut button (V for VLC Media Player).//////
          ////////////////////////////////////////////////////////////////
         - Multiplexed  ( muxed (Multiplexed), It means that there are///
        no .txt or .subfile files associated with the video instead/////
       the subtitle comes within the video  Which means that you///////
      cannot use those subtitles for some other videos unless/////////
     you extract those subtitles from that video using a third///////
    party software.)////////////////////////////////////////////////
   ////////////////////////////////////////////////////////////////
  /////////Coded by: [cyd]////////////////////////////////////////
 ///////////////////////Downloaded from videoteka.org////////////
////////////////////////////////////////////////////////Reaper//