DJ VIHAR & DJ AJDA - SLO & HR MIX 60

05-08-2020 14:36 naložil Ajda
Sejalci: 5 / Odjemalci: 0 / Velikost: 194.47 MB / Dokončani: 21
Prenesi torrent Poročaj torrent Opis torrenta NFO
Zvrst: Glasbeni
Kategorija: GLASBA > Glasba





Complete name : DJ VIHAR & DJ AJDA - SLO & HR MIX 60.mp3
Format : MPEG Audio
File size : 193 MiB
Duration : 1h 24mn
Overall bit rate mode : Constant
Overall bit rate : 320 Kbps
Encoded by : Lavf52.39.0
Writing library : LAME3.98

Audio
Format : MPEG Audio
Format version : Version 1
Format profile : Layer 3
Mode : Joint stereo
Duration : 1h 24mn
Bit rate mode : Constant
Bit rate : 320 Kbps
Channel(s) : 2 channels
Sampling rate : 48.0 KHz
Compression mode : Lossy
Stream size : 193 MiB (100%)
Writing library : LAME3.98




*******************************************************************************
~VSEBINA ~
*******************************************************************************

01. DARJA GAJŠEK - Beli cvet
02. WERNER - Zelene boje
03. JOLE - San snova
04. DINO PETRIČ - Vino i noč
05. ROBERT FICKER - Ja bolujem
06. ALEN VOGRINEC - Godine prolaze
07. SKUPINA CALYPSO - Rojena zame
08. KLAPA SKALA - Srce ki ljubi
09. MANCA ŠPIK - Nocoj
10. LIDIJA BAČIČ - Bježimo iz grada
11. ALEN NIZETIČ - Lete uspomene
12. DOMEN KUMER TIMOTEJ - Namesto tebe
13. TILEN LOTRIČ - Vino
14. MARKO ŠKUGOR - Tebi
15. DARJA GAJŠEK - Vredno je bilo
16. TANJA ŽAGAR - Moj roman
17. UČITELJICE - Proči če i to
18. BQL - Na frišno
19.ZDRAVKO SKENDER SERGIO - Mala istrijanka
20. POLKAHOLIKI - Sobica
21. LJUBAVNICI - Ne zaboravi me
22. JASMIN STAVROS - Moja marina
23. SAŠA KOVAČEVIČ - Moja malena
24. MEJAŠI - nije to vino
25. DEJAN VUNJAK - Ni je lepše kot si ti










HERMANZ, rado77, AWATAR in 6 ostalim je to všeč.
Tagi za tale torrent: Mix 60
Delite na socialnem omrežju




Complete name : DJ VIHAR & DJ AJDA - SLO & HR MIX 60.mp3
Format : MPEG Audio
File size : 193 MiB
Duration : 1h 24mn
Overall bit rate mode : Constant
Overall bit rate : 320 Kbps
Encoded by : Lavf52.39.0
Writing library : LAME3.98

Audio
Format : MPEG Audio
Format version : Version 1
Format profile : Layer 3
Mode : Joint stereo
Duration : 1h 24mn
Bit rate mode : Constant
Bit rate : 320 Kbps
Channel(s) : 2 channels
Sampling rate : 48.0 KHz
Compression mode : Lossy
Stream size : 193 MiB (100%)
Writing library : LAME3.98




*******************************************************************************
~VSEBINA ~
*******************************************************************************

01. DARJA GAJŠEK - Beli cvet
02. WERNER - Zelene boje
03. JOLE - San snova
04. DINO PETRIČ - Vino i noč
05. ROBERT FICKER - Ja bolujem
06. ALEN VOGRINEC - Godine prolaze
07. SKUPINA CALYPSO - Rojena zame
08. KLAPA SKALA - Srce ki ljubi
09. MANCA ŠPIK - Nocoj
10. LIDIJA BAČIČ - Bježimo iz grada
11. ALEN NIZETIČ - Lete uspomene
12. DOMEN KUMER TIMOTEJ - Namesto tebe
13. TILEN LOTRIČ - Vino
14. MARKO ŠKUGOR - Tebi
15. DARJA GAJŠEK - Vredno je bilo
16. TANJA ŽAGAR - Moj roman
17. UČITELJICE - Proči če i to
18. BQL - Na frišno
19.ZDRAVKO SKENDER SERGIO - Mala istrijanka
20. POLKAHOLIKI - Sobica
21. LJUBAVNICI - Ne zaboravi me
22. JASMIN STAVROS - Moja marina
23. SAŠA KOVAČEVIČ - Moja malena
24. MEJAŠI - nije to vino
25. DEJAN VUNJAK - Ni je lepše kot si ti










Trenutno še ni nobenega komentarja.
*******************************************************************************

                               \\\ ///

                           @/ _ _ \@

                            ( (o) (o) )

          ==oOOO==(_)====OOOo====

               ~ www.ViDEOTEKA.org ~

                    =========== Oooo.====
                                (   )
                    .oooO        ) / 
                    (   )       (_/
                     \ (          
                      \_)


*******************************************************************************
               ~ DJ VIHAR & DJ AJDA -  SLO & HR MIX 60 ~
*******************************************************************************

-------------------------------------------------------------------------------
                          Avdio  podatki
-------------------------------------------------------------------------------
General
Complete name                            : DJ VIHAR & DJ AJDA -  SLO & HR MIX 60.mp3
Format                                   : MPEG Audio
File size                                : 193 MiB
Duration                                 : 1h 24mn
Overall bit rate mode                    : Constant
Overall bit rate                         : 320 Kbps
Encoded by                               : Lavf52.39.0
Writing library                          : LAME3.98

Audio
Format                                   : MPEG Audio
Format version                           : Version 1
Format profile                           : Layer 3
Mode                                     : Joint stereo
Duration                                 : 1h 24mn
Bit rate mode                            : Constant
Bit rate                                 : 320 Kbps
Channel(s)                               : 2 channels
Sampling rate                            : 48.0 KHz
Compression mode                         : Lossy
Stream size                              : 193 MiB (100%)
Writing library                          : LAME3.98




*******************************************************************************
                        ~VSEBINA ~
*******************************************************************************

01. DARJA GAJ##EK - Beli cvet
02. WERNER - Zelene boje
03. JOLE - San snova
04. DINO PETRI## - Vino i no##
05. ROBERT FICKER - Ja bolujem
06. ALEN VOGRINEC - Godine prolaze
07. SKUPINA CALYPSO - Rojena zame
08. KLAPA SKALA - Srce ki ljubi
09. MANCA ##PIK - Nocoj
10. LIDIJA BA##I## - Bje##imo iz grada
11. ALEN NIZETI## - Lete uspomene
12. DOMEN KUMER TIMOTEJ - Namesto tebe
13. TILEN LOTRI## - Vino
14. MARKO ##KUGOR - Tebi
15. DARJA GAJ##EK - Vredno je bilo
16. TANJA ##AGAR - Moj roman
17. U##ITELJICE - Pro##i ##e i to
18. BQL - Na fri##no
19.ZDRAVKO SKENDER SERGIO - Mala istrijanka
20. POLKAHOLIKI - Sobica
21. LJUBAVNICI - Ne zaboravi me
22. JASMIN STAVROS - Moja marina
23. SA##A KOVA##EVI## - Moja malena
24. MEJA##I - nije to vino
25. DEJAN VUNJAK - Ni je lep##e kot si ti