DJ VIHAR & DJ AJDA - SLO & HR MIX 61

Klikni za povečavo!
17-11-2020 13:53 naložil Ajda
Sejalci: 5 / Odjemalci: 0 / Velikost: 168.03 MB / Dokončani: 10
Prenesi torrent Poročaj torrent Opis torrenta NFO
Zvrst: Glasbeni
Kategorija: GLASBA > Glasba




-------------------------------------------------------------------------------
Avdio podatki
-------------------------------------------------------------------------------
Complete name : DJ VIHAR & DJ AJDA - SLO & HR MIX 61.mp3
Format : MPEG Audio
File size : 167 MiB
Duration : 1h 13mn
Overall bit rate mode : Constant
Overall bit rate : 320 Kbps
Encoded by : Lavf52.39.0
Writing library : LAME3.98

Audio
Format : MPEG Audio
Format version : Version 1
Format profile : Layer 3
Mode : Joint stereo
Duration : 1h 13mn
Bit rate mode : Constant
Bit rate : 320 Kbps
Channel(s) : 2 channels
Sampling rate : 48.0 KHz
Compression mode : Lossy
Stream size : 167 MiB (100%)
Writing library : LAME3.98
-------------------------------------------------------------------------------
Vsebina
-------------------------------------------------------------------------------
DJ VIHAR & DJ AJDA - SLO & HR MIX 61

01. ELIXSIR - Teško te zaboravljam
02. GADI - Nor
03. LUKA BASI / NEDA UKRADEN - Ni Dubai ni Hawaii
04. MARKO ŠKUGOR - Ako grijeh je
05. MARKO PECOTIČ - Vrime nam je ljubavi
06. GORAN KARAN - Dugo nisam bio mlad
07. ANTONIJA ŠOLA - Ponovo
08. TOMISLAV BRALIĆ / KLAPA INTRADA - Ostajem tu
09. DRAŽEN ZEČIČ - Zašto plačeš
10. MATEVŽ VISOČNIK - Neprespane noči
11. TINE KOBAL - Prva in zadnja
12. DAVOR BORNO - Nek teče vino
13. KLAPA ŠUFIT / TANJA ŽAGAR - Za cili život
14. JOLE - Fali meni ona
15. ČUDEŽNI DEČKI - Tvoj poljub
16. WERNER - Lom
17. DOMENICA - Zovi
18. THE FRAJLE - Voli me godinama
19. KLAPA PUNTAMIKA - Lipota se zoveš
20. IVANA KOVAČ - Neče zlato na mene
21. MLADEN GRDOVIČ - Kad duša boli








Sini, brane63, HERMANZ in 4 ostalim je to všeč.
Delite na socialnem omrežju



-------------------------------------------------------------------------------
Avdio podatki
-------------------------------------------------------------------------------
Complete name : DJ VIHAR & DJ AJDA - SLO & HR MIX 61.mp3
Format : MPEG Audio
File size : 167 MiB
Duration : 1h 13mn
Overall bit rate mode : Constant
Overall bit rate : 320 Kbps
Encoded by : Lavf52.39.0
Writing library : LAME3.98

Audio
Format : MPEG Audio
Format version : Version 1
Format profile : Layer 3
Mode : Joint stereo
Duration : 1h 13mn
Bit rate mode : Constant
Bit rate : 320 Kbps
Channel(s) : 2 channels
Sampling rate : 48.0 KHz
Compression mode : Lossy
Stream size : 167 MiB (100%)
Writing library : LAME3.98
-------------------------------------------------------------------------------
Vsebina
-------------------------------------------------------------------------------
DJ VIHAR & DJ AJDA - SLO & HR MIX 61

01. ELIXSIR - Teško te zaboravljam
02. GADI - Nor
03. LUKA BASI / NEDA UKRADEN - Ni Dubai ni Hawaii
04. MARKO ŠKUGOR - Ako grijeh je
05. MARKO PECOTIČ - Vrime nam je ljubavi
06. GORAN KARAN - Dugo nisam bio mlad
07. ANTONIJA ŠOLA - Ponovo
08. TOMISLAV BRALIĆ / KLAPA INTRADA - Ostajem tu
09. DRAŽEN ZEČIČ - Zašto plačeš
10. MATEVŽ VISOČNIK - Neprespane noči
11. TINE KOBAL - Prva in zadnja
12. DAVOR BORNO - Nek teče vino
13. KLAPA ŠUFIT / TANJA ŽAGAR - Za cili život
14. JOLE - Fali meni ona
15. ČUDEŽNI DEČKI - Tvoj poljub
16. WERNER - Lom
17. DOMENICA - Zovi
18. THE FRAJLE - Voli me godinama
19. KLAPA PUNTAMIKA - Lipota se zoveš
20. IVANA KOVAČ - Neče zlato na mene
21. MLADEN GRDOVIČ - Kad duša boli








Trenutno še ni nobenega komentarja.
*******************************************************************************

                               \\\ ///

                           @/ _ _ \@

                            ( (o) (o) )

          ==oOOO==(_)====OOOo====

               ~ www.ViDEOTEKA.org ~

                    =========== Oooo.====
                                (   )
                    .oooO        ) / 
                    (   )       (_/
                     \ (          
                      \_)


*******************************************************************************
               ~ DJ VIHAR & DJ AJDA -  SLO & HR MIX 61 ~
*******************************************************************************
-------------------------------------------------------------------------------
                          Avdio  podatki
-------------------------------------------------------------------------------
omplete name                            : DJ VIHAR & DJ AJDA -  SLO & HR MIX 61.mp3
Format                                   : MPEG Audio
File size                                : 167 MiB
Duration                                 : 1h 13mn
Overall bit rate mode                    : Constant
Overall bit rate                         : 320 Kbps
Encoded by                               : Lavf52.39.0
Writing library                          : LAME3.98

Audio
Format                                   : MPEG Audio
Format version                           : Version 1
Format profile                           : Layer 3
Mode                                     : Joint stereo
Duration                                 : 1h 13mn
Bit rate mode                            : Constant
Bit rate                                 : 320 Kbps
Channel(s)                               : 2 channels
Sampling rate                            : 48.0 KHz
Compression mode                         : Lossy
Stream size                              : 167 MiB (100%)
Writing library                          : LAME3.98
-------------------------------------------------------------------------------
                           Vsebina
-------------------------------------------------------------------------------
DJ VIHAR & DJ AJDA -  SLO & HR MIX 61

01. ELIXSIR - Te##ko te zaboravljam
02. GADI - Nor
03. LUKA BASI / NEDA UKRADEN - Ni Dubai ni Hawaii
04. MARKO ##KUGOR - Ako grijeh je
05. MARKO PECOTI## - Vrime nam je ljubavi
06. GORAN KARAN - Dugo nisam bio mlad
07. ANTONIJA ##OLA - Ponovo
08. TOMISLAV BRALI## / KLAPA INTRADA - Ostajem tu
09. DRA##EN ZE##I## - Za##to pla##e##
10. MATEV## VISO##NIK - Neprespane no##i
11. TINE KOBAL - Prva in zadnja
12. DAVOR BORNO - Nek te##e vino
13. KLAPA ##UFIT / TANJA ##AGAR - Za cili ##ivot
14. JOLE - Fali meni ona
15. ##UDE##NI DE##KI - Tvoj poljub
16. WERNER - Lom
17. DOMENICA - Zovi
18. THE FRAJLE - Voli me godinama
19. KLAPA PUNTAMIKA - Lipota se zove##
20. IVANA KOVA## - Ne##e zlato na mene
21. MLADEN GRDOVI## - Kad du##a boli