DJ VIHAR & DJ AJDA - BOZICNI MIX 2020

Klikni za povečavo!
12-12-2020 17:49 naložil Ajda
Sejalci: 3 / Odjemalci: 0 / Velikost: 115.24 MB / Dokončani: 19
Prenesi torrent Poročaj torrent Opis torrenta NFO
Kategorija: GLASBA > Glasba




*******************************************************************************
~ DJ VIHAR & DJ AJDA - BOŽIČNI MIX 2020 ~ kapakapadol
*******************************************************************************
-------------------------------------------------------------------------------
Avdio podatki santa
-------------------------------------------------------------------------------
General
Complete name : DJ VIHAR & DJ AJDA - BOZICNI MIX 2020.mp3
Format : MPEG Audio
File size : 115 MiB
Duration : 50mn 6s
Overall bit rate mode : Constant
Overall bit rate : 320 Kbps
Encoded by : Lavf52.39.0
Writing library : LAME3.98

Audio
Format : MPEG Audio
Format version : Version 1
Format profile : Layer 3
Mode : Joint stereo
Duration : 50mn 6s
Bit rate mode : Constant
Bit rate : 320 Kbps
Channel(s) : 2 channels
Sampling rate : 48.0 KHz
Compression mode : Lossy
Stream size : 115 MiB (100%)
Writing library : LAME3.98
-------------------------------------------------------------------------------
Vsebina santa
-------------------------------------------------------------------------------

01. DARJA GAJŠEK - Božične zvezdice
02. VIGOR - Badnja večer
03. ŽIGA DERŠEK - Božič bo
04. LUKA BASI - Sretan božič ljubavi
05. TARAPANA BAND - Zagrljaj za božič
06. LJUBAVNICI - Poljubi me ovog božiča
07. TONČI HULJIČ / MARKO TOLJA - Od božiča do božiča
08. MIA - Božič bez tebe
09. ŠPELA GROŠELJ / DOMEN /ILDIVJI - Za božič tebe si želim
10. NIKA ZORJAN - Poljubi me na božič
11. JELENA ROZGA - Fritula
12. KASTELO - Zvezda upanja
13. DAVOR BORNO - San božične noči
14. NAVEZA /MAJA ODERLAP - Najlepše praznike

HERMANZ, karameli, ViHaR in 4 ostalim je to všeč.
Delite na socialnem omrežju



*******************************************************************************
~ DJ VIHAR & DJ AJDA - BOŽIČNI MIX 2020 ~ kapakapadol
*******************************************************************************
-------------------------------------------------------------------------------
Avdio podatki santa
-------------------------------------------------------------------------------
General
Complete name : DJ VIHAR & DJ AJDA - BOZICNI MIX 2020.mp3
Format : MPEG Audio
File size : 115 MiB
Duration : 50mn 6s
Overall bit rate mode : Constant
Overall bit rate : 320 Kbps
Encoded by : Lavf52.39.0
Writing library : LAME3.98

Audio
Format : MPEG Audio
Format version : Version 1
Format profile : Layer 3
Mode : Joint stereo
Duration : 50mn 6s
Bit rate mode : Constant
Bit rate : 320 Kbps
Channel(s) : 2 channels
Sampling rate : 48.0 KHz
Compression mode : Lossy
Stream size : 115 MiB (100%)
Writing library : LAME3.98
-------------------------------------------------------------------------------
Vsebina santa
-------------------------------------------------------------------------------

01. DARJA GAJŠEK - Božične zvezdice
02. VIGOR - Badnja večer
03. ŽIGA DERŠEK - Božič bo
04. LUKA BASI - Sretan božič ljubavi
05. TARAPANA BAND - Zagrljaj za božič
06. LJUBAVNICI - Poljubi me ovog božiča
07. TONČI HULJIČ / MARKO TOLJA - Od božiča do božiča
08. MIA - Božič bez tebe
09. ŠPELA GROŠELJ / DOMEN /ILDIVJI - Za božič tebe si želim
10. NIKA ZORJAN - Poljubi me na božič
11. JELENA ROZGA - Fritula
12. KASTELO - Zvezda upanja
13. DAVOR BORNO - San božične noči
14. NAVEZA /MAJA ODERLAP - Najlepše praznike

Trenutno še ni nobenega komentarja.
*******************************************************************************

                               \\\ ///

                           @/ _ _ \@

                            ( (o) (o) )

          ==oOOO==(_)====OOOo====

               ~ www.ViDEOTEKA.org ~

                    =========== Oooo.====
                                (   )
                    .oooO        ) / 
                    (   )       (_/
                     \ (          
                      \_)


*******************************************************************************
               ~ DJ VIHAR & DJ AJDA - BO##I##NI MIX 2020 ~
*******************************************************************************
-------------------------------------------------------------------------------
                          Avdio  podatki
-------------------------------------------------------------------------------
General
Complete name                            : DJ VIHAR & DJ AJDA - BOZICNI MIX 2020.mp3
Format                                   : MPEG Audio
File size                                : 115 MiB
Duration                                 : 50mn 6s
Overall bit rate mode                    : Constant
Overall bit rate                         : 320 Kbps
Encoded by                               : Lavf52.39.0
Writing library                          : LAME3.98

Audio
Format                                   : MPEG Audio
Format version                           : Version 1
Format profile                           : Layer 3
Mode                                     : Joint stereo
Duration                                 : 50mn 6s
Bit rate mode                            : Constant
Bit rate                                 : 320 Kbps
Channel(s)                               : 2 channels
Sampling rate                            : 48.0 KHz
Compression mode                         : Lossy
Stream size                              : 115 MiB (100%)
Writing library                          : LAME3.98
-------------------------------------------------------------------------------
                          Vsebina
-------------------------------------------------------------------------------



01. DARJA GAJ##EK - Bo##i##ne zvezdice
02. VIGOR - Badnja ve##er
03. ##IGA DER##EK - Bo##i## bo
04. LUKA BASI - Sretan bo##i## ljubavi
05. TARAPANA BAND - Zagrljaj za bo##i##
06. LJUBAVNICI  - Poljubi me ovog bo##i##a
07. TON##I HULJI## / MARKO TOLJA - Od bo##i##a do bo##i##a
08. MIA - Bo##i## bez tebe
09. ##PELA GRO##ELJ / DOMEN /ILDIVJI - Za bo##i## tebe si ##elim
10. NIKA ZORJAN - Poljubi me na bo##i##
11. JELENA ROZGA - Fritula
12. KASTELO - Zvezda upanja
13. DAVOR BORNO - San bo##i##ne no##i
14. NAVEZA /MAJA ODERLAP - Najlep##e praznike