Caliphate.aka.Kalifat.S01.2020.SRBSubs.WEBRip.x264.ts-R77

Klikni za povečavo!
22-12-2020 14:15 naložil rado77
Sejalci: 1 / Odjemalci: 0 / Velikost: 3.55 GB / Dokončani: 3
Prenesi torrent Poročaj torrent Opis torrenta
Zvrst: Drama | Triler
Kategorija: FILMI > TV - Serija

Caliphate.aka.Kalifat.S01.2020.SRBSubs.WEBRip.x264.ts-R77


Kalifat

Caliphate

TV Serija-S01


Država: Švedska
Jezik: švedščina
Datum izdaje: 12. januar 2020 (Švedska)
Ločljivost: 1280x720
Izvajanje: 45 min
Podnapisi: Srbski
https://www.imdb.com/title/tt11398870/

Igralska zasedba:
Gizem Erdogan ... Pervin 8 epizod, 2020
Amed Bozan ... Husam 8 epizod, 2020
Aliette Opheim ... Fatima 8 epizod, 2020
Albin Grenholm ... Calle 8 epizod, 2020
Nora Rios ... Sulle 8 epizod, 2020
Amanda Sohrabi ... Kerima 8 epizod, 2020

Zaplet:
Agent Fatima dobi namig, da je na Švedskem načrtovano teroristično dejanje. Hkrati je najstnica Sulle odprla oči svojemu študentskemu asistentu, ki odpira vrata v nov fascinanten svet.
Več opisa preprosto ni potrebno, ker je serija tako dobra!

Tehnične specifikacije:
Complete name : Caliphate.aka.Kalifat.S01.2020.SRBSubs.WEBRip.x264.ts-R77\Kalifat.S01E01.WEBRip.x264-R77.mp4
Format : MPEG-4
Format profile : Base Media
Codec ID : isom (isom/iso2/avc1/mp41)
File size : 447 MiB
Duration : 46 min 46 s
Overall bit rate : 1 337 kb/s
Movie name : Kalifat.S01E01.WEBRip.x264-ION10
Encoded date : UTC 2020-03-21 16:06:12
Tagged date : UTC 2020-03-21 16:06:12
Writing application : Lavf58.0.101
Comment : Kalifat.S01E01.WEBRip.x264-ION10

Video
ID : 1
Format : AVC
Format/Info : Advanced Video Codec
Format profile : High@L3.1
Format settings : CABAC / 5 Ref Frames
Format settings, CABAC : Yes
Format settings, Reference frames : 5 frames
Codec ID : avc1
Codec ID/Info : Advanced Video Coding
Duration : 46 min 46 s
Bit rate : 1 100 kb/s
Width : 720 pixels
Height : 400 pixels
Display aspect ratio : 16:9
Frame rate mode : Constant
Frame rate : 25.000 FPS
Color space : YUV
Chroma subsampling : 4:2:0
Bit depth : 8 bits
Scan type : Progressive
Bits/(Pixel*Frame) : 0.153
Stream size : 360 MiB (80%)
Title : Kalifat.S01E01.WEBRip.x264-ION10
Writing library : x264 core 148 r2795M aaa9aa8
Tagged date : UTC 2020-03-21 16:06:12
Codec configuration box : avcC

Audio
ID : 2
Format : AAC LC
Format/Info : Advanced Audio Codec Low Complexity
Codec ID : mp4a-40-2
Duration : 46 min 46 s
Duration_LastFrame : -11 ms
Bit rate mode : Constant
Bit rate : 256 kb/s
Channel(s) : 2 channels
Channel layout : L R
Sampling rate : 48.0 kHz
Frame rate : 46.875 FPS (1024 SPF)
Compression mode : Lossy
Stream size : 85.7 MiB (19%)
Title : Kalifat.S01E01.WEBRip.x264-ION10
Language : Swedish
Default : Yes
Alternate group : 1
Encoded date : UTC 2020-03-21 16:06:12
Tagged date : UTC 2020-03-21 16:06:12

UŽIVAJTE!
Sini je to všeč
Tagi za tale torrent: Drama. triler
Delite na socialnem omrežju
Caliphate.aka.Kalifat.S01.2020.SRBSubs.WEBRip.x264.ts-R77


Kalifat

Caliphate

TV Serija-S01


Država: Švedska
Jezik: švedščina
Datum izdaje: 12. januar 2020 (Švedska)
Ločljivost: 1280x720
Izvajanje: 45 min
Podnapisi: Srbski
https://www.imdb.com/title/tt11398870/

Igralska zasedba:
Gizem Erdogan ... Pervin 8 epizod, 2020
Amed Bozan ... Husam 8 epizod, 2020
Aliette Opheim ... Fatima 8 epizod, 2020
Albin Grenholm ... Calle 8 epizod, 2020
Nora Rios ... Sulle 8 epizod, 2020
Amanda Sohrabi ... Kerima 8 epizod, 2020

Zaplet:
Agent Fatima dobi namig, da je na Švedskem načrtovano teroristično dejanje. Hkrati je najstnica Sulle odprla oči svojemu študentskemu asistentu, ki odpira vrata v nov fascinanten svet.
Več opisa preprosto ni potrebno, ker je serija tako dobra!

Tehnične specifikacije:
Complete name : Caliphate.aka.Kalifat.S01.2020.SRBSubs.WEBRip.x264.ts-R77\Kalifat.S01E01.WEBRip.x264-R77.mp4
Format : MPEG-4
Format profile : Base Media
Codec ID : isom (isom/iso2/avc1/mp41)
File size : 447 MiB
Duration : 46 min 46 s
Overall bit rate : 1 337 kb/s
Movie name : Kalifat.S01E01.WEBRip.x264-ION10
Encoded date : UTC 2020-03-21 16:06:12
Tagged date : UTC 2020-03-21 16:06:12
Writing application : Lavf58.0.101
Comment : Kalifat.S01E01.WEBRip.x264-ION10

Video
ID : 1
Format : AVC
Format/Info : Advanced Video Codec
Format profile : High@L3.1
Format settings : CABAC / 5 Ref Frames
Format settings, CABAC : Yes
Format settings, Reference frames : 5 frames
Codec ID : avc1
Codec ID/Info : Advanced Video Coding
Duration : 46 min 46 s
Bit rate : 1 100 kb/s
Width : 720 pixels
Height : 400 pixels
Display aspect ratio : 16:9
Frame rate mode : Constant
Frame rate : 25.000 FPS
Color space : YUV
Chroma subsampling : 4:2:0
Bit depth : 8 bits
Scan type : Progressive
Bits/(Pixel*Frame) : 0.153
Stream size : 360 MiB (80%)
Title : Kalifat.S01E01.WEBRip.x264-ION10
Writing library : x264 core 148 r2795M aaa9aa8
Tagged date : UTC 2020-03-21 16:06:12
Codec configuration box : avcC

Audio
ID : 2
Format : AAC LC
Format/Info : Advanced Audio Codec Low Complexity
Codec ID : mp4a-40-2
Duration : 46 min 46 s
Duration_LastFrame : -11 ms
Bit rate mode : Constant
Bit rate : 256 kb/s
Channel(s) : 2 channels
Channel layout : L R
Sampling rate : 48.0 kHz
Frame rate : 46.875 FPS (1024 SPF)
Compression mode : Lossy
Stream size : 85.7 MiB (19%)
Title : Kalifat.S01E01.WEBRip.x264-ION10
Language : Swedish
Default : Yes
Alternate group : 1
Encoded date : UTC 2020-03-21 16:06:12
Tagged date : UTC 2020-03-21 16:06:12

UŽIVAJTE!
Trenutno še ni nobenega komentarja.
Nič ni najdeno.