Cinema.Komunisto.2010.SLOSubs.720p.WEBRip.x264-R77

Klikni za povečavo!
22-12-2020 14:30 naložil rado77
Sejalci: 1 / Odjemalci: 0 / Velikost: 1.37 GB / Dokončani: 5
Prenesi torrent Poročaj torrent Opis torrenta
Zvrst: Zgodovinski
Kategorija: FILMI > Dokumentarni

Cinema.Komunisto.2010.SLOSubs.720p.WEBRip.x264-R77

Cinema Komunisto (2010)
dokumentarni



Režija Mila Turajlić
Scenarij Mila Turajlić
Fotografija Goran Kovačević
Montaža Aleksandra Milovanović
Glasba Nemanja Mosurović
Producenti Dragan Pešikan, Mila Turajlić, Iva Plemić Divjak, Dejan Petrović, Goran Ješić
Produkcija Dribbling Pictures
Koprodukcija 3K Productions, Intermedia Network
Nastopajo Veljko Bulajić, Velimir Bata Živojinović, Aleksandar Leka Konstatinović, Steva Petrović, Gile Djurić
Trajanje : 01:41:25
SLO PODNAPISI


Vsebina:

SLO
Zgodba o filmskem studiu, kjer je nastajala zgodovina Jugoslavije. Zgodba o človeku, ki je vsak večer obsesivno gledal filme, medtem ko je podnevi vodil državo ter bral in popravljal scenarije bodočih filmov. Zgodba o času, ko je Jugoslavija veljala za Hollywood vzhoda. V zakulisje zlatega obdobja jugoslovanske filmske industrije nas popelje dolgoletni Titov osebni kinooperater Leka Konstantinović, njegov najljubši režiser Veljko Bulajić, zvezda partizanskega filma Bata Živojinović in drugi.
Kolaž prizorov iz pozabljenih jugoslovanskih filmov, arhivskih posnetkov in ekskluzivnih intervjujev pripoveduje zgodbo o vzponu in padcu 'Hollywooda vzhoda' in o ustvarjanju mita o Jugoslaviji na filmskem platnu. Prvenec mlade srbske režiserke je nostalgična, grenko-sladka zgodba o državi, ki ne obstaja več... razen v filmu.
Mila Turajlić, režiserka in scenaristka:
»V to zgodbo sem vstopila kot pripadnica nove generacije jugoslovanskih filmskih ustvarjalcev z zelo nejasnimi spomini na deželo, ki ne obstaja več. Odrasli smo med ruševinami nečesa, kar nostalgično imenujemo 'zlata doba'. Zamudili smo to veliko žurko in prišli ravno ob času, ko je bilo treba plačati račune. /.../ Resnična motivacija za film je bil prvi obisk filmskih studiev Avala filma.
Vstopila sem skozi široka vrata in bilo je, kot bi vstopila v skrivnostni vrt. Pogledala sem za zid in nenadoma se mi je razkril svet, za katerega nisem vedela, da obstaja. Bil je brezmejen, izumrlo mesto zapuščenih in razpadajočih kulis, zastarele opreme, praznih filmskih scen in brezposelnih tehnikov. /.../ Avala film je bil na neki način kraj, kjer se je rojevala iluzija o Jugoslaviji. To je bila moja izhodiščna točka za film, saj sem menila, da lahko porušeni filmski studio razkrije nekaj o razpadu scenografije dežele, v kateri smo živeli. /.../ Želela sem narediti film o tem, kako je mogoče s pomočjo filma napisati zgodbo o neki deželi in ustvariti njeno uradno nacionalno podobo. /.../ Mojo osnovno idejo najbolje povzame citat Jacquesa Rancièra: 'Zgodovina filma je zgodovina moči ustvarjanja zgodovine.'«

SRB-HR
(Filmska priča o Titovu kinooperateru, usponu i padu Avala filma, žanru partizanskog filma i Pulskom festivalu...
Cinema Komunisto nas vodi na putovanje kroz ostatke Titove filmske industrije ispitujući uspon i pad jugoslavenske filmske iluzije. Leka Konstantinović bio je 32 godine Titov osobni kinooperater. U tom periodu prikazao mu je ukupno 8801 film o čemu je vodio uredne zabilješke. Zajedno s redateljemVeljkom Bulajićem, Titovim omiljenim glumcem Batom Živojinovićem i direktorima i zaposlenicima Avala filma Leka govori o tome kako je Maršal Tito koristio filmsku industriju da stvori 'zvanični narativ' nove države - Socijalističke Federativne Republike Jugoslavije. Od natrule scenografije u 'gradu duhova’, u koji se pretvorila moćna Avala, do predsjednikove privatne sale za projekcije, pratimo čovjeka koji je opsesivno svake noći gledao filmove dok je danju, upravljajući zemljom, čitao, pa čak i prepravljao scenarije budućih filmova. Uz pomoć odlomaka iz više od 60 zaboravljenih jugoslavenskih filmova, 'Cinema Komunisto' je priča o Jugoslaviji na način na koji ona nikada nije ispričana na filmskom platnu. Otkrijte tajne pulskog festivala, rušenja mosta na Neretvi, Titove opsesije kinematografijom i opsesije stranih glumaca i redatelja Titom koji su redovito snimali u Jugoslaviji.)


Tehnične specifikacije:

Unique ID : 171512738702936913082549147028703504004 (0x810826E4F64EBBA99B0A576015FD6684)
Complete name : Cinema.Komunisto.2010.SLOSubs.720p.WEBRip.x264-R77\Cinema Komunisto (2010).mkv
Format : Matroska
Format version : Version 4
File size : 1.37 GiB
Duration : 1 h 41 min
Overall bit rate : 1 930 kb/s
Encoded date : UTC 2010-02-22 21:41:31
Writing application : mkvmerge v5.9.0 ('On The Loose') built on Dec 9 2012 15:37:01
Writing library : libebml v1.3.0 + libmatroska v1.4.0
Video
ID : 1
Format : AVC
Format/Info : Advanced Video Codec
Format profile : High@L4.1
Format settings : CABAC / 8 Ref Frames
Format settings, CABAC : Yes
Format settings, Reference frames : 8 frames
Muxing mode : Header stripping
Codec ID : V_MPEG4/ISO/AVC
Duration : 1 h 41 min
Bit rate : 1 735 kb/s
Width : 720 pixels
Height : 576 pixels
Display aspect ratio : 16:9
Frame rate mode : Constant
Frame rate : 25.000 FPS
Standard : PAL
Color space : YUV
Chroma subsampling : 4:2:0
Bit depth : 8 bits
Scan type : Progressive
Bits/(Pixel*Frame) : 0.167
Stream size : 1.20 GiB (88%)
Writing library : x264 core 128
Default : Yes
Forced : No
Color range : Limited
Color primaries : BT.601 PAL
Transfer characteristics : BT.709
Matrix coefficients : BT.601
Audio
ID : 2
Format : AC-3
Format/Info : Audio Coding 3
Commercial name : Dolby Digital
Muxing mode : Header stripping
Codec ID : A_AC3
Duration : 1 h 41 min
Bit rate mode : Constant
Bit rate : 192 kb/s
Channel(s) : 2 channels
Channel layout : L R
Sampling rate : 48.0 kHz
Frame rate : 31.250 FPS (1536 SPF)
Compression mode : Lossy
Stream size : 139 MiB (10%)
Language : Serbian
Service kind : Complete Main
Default : Yes
Forced : No

UŽIVAJTE!
eva in ViHaR je to všeč.
Tagi za tale torrent: Zgodovina
Delite na socialnem omrežju
Cinema.Komunisto.2010.SLOSubs.720p.WEBRip.x264-R77

Cinema Komunisto (2010)
dokumentarni



Režija Mila Turajlić
Scenarij Mila Turajlić
Fotografija Goran Kovačević
Montaža Aleksandra Milovanović
Glasba Nemanja Mosurović
Producenti Dragan Pešikan, Mila Turajlić, Iva Plemić Divjak, Dejan Petrović, Goran Ješić
Produkcija Dribbling Pictures
Koprodukcija 3K Productions, Intermedia Network
Nastopajo Veljko Bulajić, Velimir Bata Živojinović, Aleksandar Leka Konstatinović, Steva Petrović, Gile Djurić
Trajanje : 01:41:25
SLO PODNAPISI


Vsebina:

SLO
Zgodba o filmskem studiu, kjer je nastajala zgodovina Jugoslavije. Zgodba o človeku, ki je vsak večer obsesivno gledal filme, medtem ko je podnevi vodil državo ter bral in popravljal scenarije bodočih filmov. Zgodba o času, ko je Jugoslavija veljala za Hollywood vzhoda. V zakulisje zlatega obdobja jugoslovanske filmske industrije nas popelje dolgoletni Titov osebni kinooperater Leka Konstantinović, njegov najljubši režiser Veljko Bulajić, zvezda partizanskega filma Bata Živojinović in drugi.
Kolaž prizorov iz pozabljenih jugoslovanskih filmov, arhivskih posnetkov in ekskluzivnih intervjujev pripoveduje zgodbo o vzponu in padcu 'Hollywooda vzhoda' in o ustvarjanju mita o Jugoslaviji na filmskem platnu. Prvenec mlade srbske režiserke je nostalgična, grenko-sladka zgodba o državi, ki ne obstaja več... razen v filmu.
Mila Turajlić, režiserka in scenaristka:
»V to zgodbo sem vstopila kot pripadnica nove generacije jugoslovanskih filmskih ustvarjalcev z zelo nejasnimi spomini na deželo, ki ne obstaja več. Odrasli smo med ruševinami nečesa, kar nostalgično imenujemo 'zlata doba'. Zamudili smo to veliko žurko in prišli ravno ob času, ko je bilo treba plačati račune. /.../ Resnična motivacija za film je bil prvi obisk filmskih studiev Avala filma.
Vstopila sem skozi široka vrata in bilo je, kot bi vstopila v skrivnostni vrt. Pogledala sem za zid in nenadoma se mi je razkril svet, za katerega nisem vedela, da obstaja. Bil je brezmejen, izumrlo mesto zapuščenih in razpadajočih kulis, zastarele opreme, praznih filmskih scen in brezposelnih tehnikov. /.../ Avala film je bil na neki način kraj, kjer se je rojevala iluzija o Jugoslaviji. To je bila moja izhodiščna točka za film, saj sem menila, da lahko porušeni filmski studio razkrije nekaj o razpadu scenografije dežele, v kateri smo živeli. /.../ Želela sem narediti film o tem, kako je mogoče s pomočjo filma napisati zgodbo o neki deželi in ustvariti njeno uradno nacionalno podobo. /.../ Mojo osnovno idejo najbolje povzame citat Jacquesa Rancièra: 'Zgodovina filma je zgodovina moči ustvarjanja zgodovine.'«

SRB-HR
(Filmska priča o Titovu kinooperateru, usponu i padu Avala filma, žanru partizanskog filma i Pulskom festivalu...
Cinema Komunisto nas vodi na putovanje kroz ostatke Titove filmske industrije ispitujući uspon i pad jugoslavenske filmske iluzije. Leka Konstantinović bio je 32 godine Titov osobni kinooperater. U tom periodu prikazao mu je ukupno 8801 film o čemu je vodio uredne zabilješke. Zajedno s redateljemVeljkom Bulajićem, Titovim omiljenim glumcem Batom Živojinovićem i direktorima i zaposlenicima Avala filma Leka govori o tome kako je Maršal Tito koristio filmsku industriju da stvori 'zvanični narativ' nove države - Socijalističke Federativne Republike Jugoslavije. Od natrule scenografije u 'gradu duhova’, u koji se pretvorila moćna Avala, do predsjednikove privatne sale za projekcije, pratimo čovjeka koji je opsesivno svake noći gledao filmove dok je danju, upravljajući zemljom, čitao, pa čak i prepravljao scenarije budućih filmova. Uz pomoć odlomaka iz više od 60 zaboravljenih jugoslavenskih filmova, 'Cinema Komunisto' je priča o Jugoslaviji na način na koji ona nikada nije ispričana na filmskom platnu. Otkrijte tajne pulskog festivala, rušenja mosta na Neretvi, Titove opsesije kinematografijom i opsesije stranih glumaca i redatelja Titom koji su redovito snimali u Jugoslaviji.)


Tehnične specifikacije:

Unique ID : 171512738702936913082549147028703504004 (0x810826E4F64EBBA99B0A576015FD6684)
Complete name : Cinema.Komunisto.2010.SLOSubs.720p.WEBRip.x264-R77\Cinema Komunisto (2010).mkv
Format : Matroska
Format version : Version 4
File size : 1.37 GiB
Duration : 1 h 41 min
Overall bit rate : 1 930 kb/s
Encoded date : UTC 2010-02-22 21:41:31
Writing application : mkvmerge v5.9.0 ('On The Loose') built on Dec 9 2012 15:37:01
Writing library : libebml v1.3.0 + libmatroska v1.4.0
Video
ID : 1
Format : AVC
Format/Info : Advanced Video Codec
Format profile : High@L4.1
Format settings : CABAC / 8 Ref Frames
Format settings, CABAC : Yes
Format settings, Reference frames : 8 frames
Muxing mode : Header stripping
Codec ID : V_MPEG4/ISO/AVC
Duration : 1 h 41 min
Bit rate : 1 735 kb/s
Width : 720 pixels
Height : 576 pixels
Display aspect ratio : 16:9
Frame rate mode : Constant
Frame rate : 25.000 FPS
Standard : PAL
Color space : YUV
Chroma subsampling : 4:2:0
Bit depth : 8 bits
Scan type : Progressive
Bits/(Pixel*Frame) : 0.167
Stream size : 1.20 GiB (88%)
Writing library : x264 core 128
Default : Yes
Forced : No
Color range : Limited
Color primaries : BT.601 PAL
Transfer characteristics : BT.709
Matrix coefficients : BT.601
Audio
ID : 2
Format : AC-3
Format/Info : Audio Coding 3
Commercial name : Dolby Digital
Muxing mode : Header stripping
Codec ID : A_AC3
Duration : 1 h 41 min
Bit rate mode : Constant
Bit rate : 192 kb/s
Channel(s) : 2 channels
Channel layout : L R
Sampling rate : 48.0 kHz
Frame rate : 31.250 FPS (1536 SPF)
Compression mode : Lossy
Stream size : 139 MiB (10%)
Language : Serbian
Service kind : Complete Main
Default : Yes
Forced : No

UŽIVAJTE!
Odlična zadeva. Splača se pogledat.
radoha62 24-12-2020 18:40
Nič ni najdeno.