Essential.Killing.2010.SRBSubs.720p.WEBRipx264.AC3-R77

Klikni za povečavo!
25-12-2020 16:18 naložil rado77
Sejalci: 1 / Odjemalci: 0 / Velikost: 1.84 GB / Dokončani: 12
Prenesi torrent Magnet Link Poročaj torrent Opis torrenta
Kategorija: FILMI > WEBRip-720

Essential.Killing.2010.SRBSubs.720p.WEBRipx264.AC3-R77


Essential Killing 2010

Bistvo ubijanja


Igralska zasedba:

Vincent Gallo, Emmanuelle Seigner, Nicolai Cleve Broch, Phillip Goss, Stig Frode Henriksen, David L. Price, Lars Markus Verpeide Bakke, Klaudia Kaca, Robert Mazurkiewicz, Dariusz Juzyszyn, Iftach Ophir


Povzetek:

Ameriške sile ujamejo afganistanskega vojaka (Vincent Gallo) in ga pošljejo v priporni center, podoben Guantanamu, v nedoločeni vzhodnoevropski državi. A mu uspe pobegniti in naleteti na prostrani, neznani zasneženi teren, kjer mora, kot je razvidno iz naslova, narediti vse, kar je potrebno za preživetje.


Nagrade:

2010 : beneški filmski festival: posebna nagrada žirije, najboljši igralec (Vincent Gallo), nagrada CinemAvvenire
2010 : Filmski festival v Mar del Plati: najboljši film, najboljši igralec (Vincent Gallo)
2010: 4 poljske filmske nagrade, vključno z najboljšim filmom in režijo


Podrobnosti:

Direktor: Jerzy Skolimowski
Država: Poljska | Norveška | Irska | Madžarska | Francija
Jezik: Angleščina | Poljščina | Arabsko
Poznan tudi kot: Nujno ubijanje
Podnapisi: Srbski
Lokacije snemanja: Varšava, Mazowieckie, Poljska
Trajanje: 83 min
Žanri: Akcijski , triler , vojna


Tehnične specifikacije:

Complete name : Essential.Killing.2010.SRBSubs.720p.WEBRipx264.AC3-R77\Essential.Killing.2010.SRBSubs.720p.WEBRipx264.AC3-R77.mp4
Format : MPEG-4
Format profile : Base Media
Codec ID : isom (isom/iso2/avc1/mp41)
File size : 1.84 GiB
Duration : 1 h 24 min
Overall bit rate : 3 115 kb/s
Writing application : Lavf58.29.100
Video
ID : 1
Format : AVC
Format/Info : Advanced Video Codec
Format profile : High@L3.1
Format settings : CABAC / 2 Ref Frames
Format settings, CABAC : Yes
Format settings, Reference frames : 2 frames
Codec ID : avc1
Codec ID/Info : Advanced Video Coding
Duration : 1 h 24 min
Bit rate : 2 980 kb/s
Width : 1 280 pixels
Height : 688 pixels
Display aspect ratio : 1.85:1
Frame rate mode : Constant
Frame rate : 24.000 FPS
Color space : YUV
Chroma subsampling : 4:2:0
Bit depth : 8 bits
Scan type : Progressive
Bits/(Pixel*Frame) : 0.141
Stream size : 1.76 GiB (96%)
Codec configuration box : avcC


Audio

ID : 2
Format : AAC LC
Format/Info : Advanced Audio Codec Low Complexity
Codec ID : mp4a-40-2
Duration : 1 h 24 min
Bit rate mode : Constant
Bit rate : 129 kb/s
Channel(s) : 2 channels
Channel layout : L R
Sampling rate : 44.1 kHz
Frame rate : 43.066 FPS (1024 SPF)
Compression mode : Lossy
Stream size : 77.8 MiB (4%)
Language : English
Default : Yes
Alternate group : 1

UŽIVAJTE!
bodo je to všeč
Tagi za tale torrent: Akcija, Triler, Pustolovski, Vojni
Delite na socialnem omrežju
Essential.Killing.2010.SRBSubs.720p.WEBRipx264.AC3-R77


Essential Killing 2010

Bistvo ubijanja


Igralska zasedba:

Vincent Gallo, Emmanuelle Seigner, Nicolai Cleve Broch, Phillip Goss, Stig Frode Henriksen, David L. Price, Lars Markus Verpeide Bakke, Klaudia Kaca, Robert Mazurkiewicz, Dariusz Juzyszyn, Iftach Ophir


Povzetek:

Ameriške sile ujamejo afganistanskega vojaka (Vincent Gallo) in ga pošljejo v priporni center, podoben Guantanamu, v nedoločeni vzhodnoevropski državi. A mu uspe pobegniti in naleteti na prostrani, neznani zasneženi teren, kjer mora, kot je razvidno iz naslova, narediti vse, kar je potrebno za preživetje.


Nagrade:

2010 : beneški filmski festival: posebna nagrada žirije, najboljši igralec (Vincent Gallo), nagrada CinemAvvenire
2010 : Filmski festival v Mar del Plati: najboljši film, najboljši igralec (Vincent Gallo)
2010: 4 poljske filmske nagrade, vključno z najboljšim filmom in režijo


Podrobnosti:

Direktor: Jerzy Skolimowski
Država: Poljska | Norveška | Irska | Madžarska | Francija
Jezik: Angleščina | Poljščina | Arabsko
Poznan tudi kot: Nujno ubijanje
Podnapisi: Srbski
Lokacije snemanja: Varšava, Mazowieckie, Poljska
Trajanje: 83 min
Žanri: Akcijski , triler , vojna


Tehnične specifikacije:

Complete name : Essential.Killing.2010.SRBSubs.720p.WEBRipx264.AC3-R77\Essential.Killing.2010.SRBSubs.720p.WEBRipx264.AC3-R77.mp4
Format : MPEG-4
Format profile : Base Media
Codec ID : isom (isom/iso2/avc1/mp41)
File size : 1.84 GiB
Duration : 1 h 24 min
Overall bit rate : 3 115 kb/s
Writing application : Lavf58.29.100
Video
ID : 1
Format : AVC
Format/Info : Advanced Video Codec
Format profile : High@L3.1
Format settings : CABAC / 2 Ref Frames
Format settings, CABAC : Yes
Format settings, Reference frames : 2 frames
Codec ID : avc1
Codec ID/Info : Advanced Video Coding
Duration : 1 h 24 min
Bit rate : 2 980 kb/s
Width : 1 280 pixels
Height : 688 pixels
Display aspect ratio : 1.85:1
Frame rate mode : Constant
Frame rate : 24.000 FPS
Color space : YUV
Chroma subsampling : 4:2:0
Bit depth : 8 bits
Scan type : Progressive
Bits/(Pixel*Frame) : 0.141
Stream size : 1.76 GiB (96%)
Codec configuration box : avcC


Audio

ID : 2
Format : AAC LC
Format/Info : Advanced Audio Codec Low Complexity
Codec ID : mp4a-40-2
Duration : 1 h 24 min
Bit rate mode : Constant
Bit rate : 129 kb/s
Channel(s) : 2 channels
Channel layout : L R
Sampling rate : 44.1 kHz
Frame rate : 43.066 FPS (1024 SPF)
Compression mode : Lossy
Stream size : 77.8 MiB (4%)
Language : English
Default : Yes
Alternate group : 1

UŽIVAJTE!
Trenutno še ni nobenega komentarja.
Nič ni najdeno.