Bozicni.ustanak.S01.Ep.01-09. TVRip.720p.x264.R77

Klikni za povečavo!
25-12-2020 16:27 naložil System
Sejalci: 1 / Odjemalci: 0 / Velikost: 4.7 GB / Dokončani: 7
Prenesi torrent Poročaj torrent Opis torrenta
Zvrst: Drama | Vojni | Zgodovinski
Kategorija: FILMI > TV - Serija
Anonimen nalagalec

Bozicni.ustanak.S01.Ep.01-09. TVRip.720p.x264.R77

Bozićni ustanak

TV serija S01 / 2017

Božični upor


Pristne in zgodovinske serije o državi, ki je izginila s sveta, čeprav je zmagala v 1. svetovni vojni. Resnična zgodba o junaškem črnogorskem boju za dobrobit Srbije, ki jo je kasneje srbska okupacija kaznovala.- napisal: markomr


Zgodba

Serija o koncu prve svetovne vojne, izgubi državnosti in božični vstaji - najbolj tragičnih dogodkih v zgodovini Črne gore. Zgodba je pripovedovana skozi ljubezensko zgodbo in družinske odnose v tistem obdobju v Črni gori.

Žanri: Drama | Zgodovina | Romantični | Vojna
Igrajo: Miodrag Radonjic, Sanja Popovic, Amar Bukvic

Podrobnosti:
Država: Črna gora
Datum izdaje:29. januar 2017 (Črna gora)
IMDb: https://www.imdb.com/title/tt4310408/?ref_=login


Tehnične specifikacije:

Complete name : Bozicni.ustanak.S01.Ep.01-09. TVRip.720p.x264.R77\Bozicni ustanak TVRip.720p.x264.Ep.01.mp4
Format : MPEG-4
Format profile : Base Media / Version 2
Codec ID : mp42 (isom/iso2/avc1/mp41)
File size : 430 MiB
Duration : 42 min 25 s
Overall bit rate mode : Variable
Overall bit rate : 1 416 kb/s
Encoded date : UTC 2017-02-02 13:43:34
Tagged date : UTC 2017-02-02 13:43:34
Writing application : HandBrake 0.10.3 2016012200

Video
ID : 1
Format : AVC
Format/Info : Advanced Video Codec
Format profile : Main@L4
Format settings : CABAC / 9 Ref Frames
Format settings, CABAC : Yes
Format settings, Reference frames : 9 frames
Codec ID : avc1
Codec ID/Info : Advanced Video Coding
Duration : 42 min 25 s
Bit rate : 1 250 kb/s
Width : 1 280 pixels
Height : 720 pixels
Display aspect ratio : 16:9
Frame rate mode : Constant
Frame rate : 25.000 FPS
Color space : YUV
Chroma subsampling : 4:2:0
Bit depth : 8 bits
Scan type : Progressive
Bits/(Pixel*Frame) : 0.054
Stream size : 379 MiB (88%)
Writing library : x264 core 142 r2479 dd79a61
Encoded date : UTC 2017-02-02 13:43:34
Tagged date : UTC 2017-02-02 13:43:34
Color range : Limited
Color primaries : BT.709
Transfer characteristics : BT.709
Matrix coefficients : BT.709
Codec configuration box : avcC
Audio
ID : 2
Format : AAC LC
Format/Info : Advanced Audio Codec Low Complexity
Codec ID : mp4a-40-2
Duration : 42 min 25 s
Bit rate mode : Variable
Bit rate : 160 kb/s
Channel(s) : 2 channels
Channel layout : L R
Sampling rate : 48.0 kHz
Frame rate : 46.875 FPS (1024 SPF)
Compression mode : Lossy
Stream size : 48.7 MiB (11%)
Title : Stereo / Stereo
Default : Yes
Alternate group : 1
Encoded date : UTC 2017-02-02 13:43:34
Tagged date : UTC 2017-02-02 13:43:34

UŽIVAJTE!
bodo je to všeč
Tagi za tale torrent: Drama, Romanca, Zgodovina, Vojni
Delite na socialnem omrežju
Bozicni.ustanak.S01.Ep.01-09. TVRip.720p.x264.R77

Bozićni ustanak

TV serija S01 / 2017

Božični upor


Pristne in zgodovinske serije o državi, ki je izginila s sveta, čeprav je zmagala v 1. svetovni vojni. Resnična zgodba o junaškem črnogorskem boju za dobrobit Srbije, ki jo je kasneje srbska okupacija kaznovala.- napisal: markomr


Zgodba

Serija o koncu prve svetovne vojne, izgubi državnosti in božični vstaji - najbolj tragičnih dogodkih v zgodovini Črne gore. Zgodba je pripovedovana skozi ljubezensko zgodbo in družinske odnose v tistem obdobju v Črni gori.

Žanri: Drama | Zgodovina | Romantični | Vojna
Igrajo: Miodrag Radonjic, Sanja Popovic, Amar Bukvic

Podrobnosti:
Država: Črna gora
Datum izdaje:29. januar 2017 (Črna gora)
IMDb: https://www.imdb.com/title/tt4310408/?ref_=login


Tehnične specifikacije:

Complete name : Bozicni.ustanak.S01.Ep.01-09. TVRip.720p.x264.R77\Bozicni ustanak TVRip.720p.x264.Ep.01.mp4
Format : MPEG-4
Format profile : Base Media / Version 2
Codec ID : mp42 (isom/iso2/avc1/mp41)
File size : 430 MiB
Duration : 42 min 25 s
Overall bit rate mode : Variable
Overall bit rate : 1 416 kb/s
Encoded date : UTC 2017-02-02 13:43:34
Tagged date : UTC 2017-02-02 13:43:34
Writing application : HandBrake 0.10.3 2016012200

Video
ID : 1
Format : AVC
Format/Info : Advanced Video Codec
Format profile : Main@L4
Format settings : CABAC / 9 Ref Frames
Format settings, CABAC : Yes
Format settings, Reference frames : 9 frames
Codec ID : avc1
Codec ID/Info : Advanced Video Coding
Duration : 42 min 25 s
Bit rate : 1 250 kb/s
Width : 1 280 pixels
Height : 720 pixels
Display aspect ratio : 16:9
Frame rate mode : Constant
Frame rate : 25.000 FPS
Color space : YUV
Chroma subsampling : 4:2:0
Bit depth : 8 bits
Scan type : Progressive
Bits/(Pixel*Frame) : 0.054
Stream size : 379 MiB (88%)
Writing library : x264 core 142 r2479 dd79a61
Encoded date : UTC 2017-02-02 13:43:34
Tagged date : UTC 2017-02-02 13:43:34
Color range : Limited
Color primaries : BT.709
Transfer characteristics : BT.709
Matrix coefficients : BT.709
Codec configuration box : avcC
Audio
ID : 2
Format : AAC LC
Format/Info : Advanced Audio Codec Low Complexity
Codec ID : mp4a-40-2
Duration : 42 min 25 s
Bit rate mode : Variable
Bit rate : 160 kb/s
Channel(s) : 2 channels
Channel layout : L R
Sampling rate : 48.0 kHz
Frame rate : 46.875 FPS (1024 SPF)
Compression mode : Lossy
Stream size : 48.7 MiB (11%)
Title : Stereo / Stereo
Default : Yes
Alternate group : 1
Encoded date : UTC 2017-02-02 13:43:34
Tagged date : UTC 2017-02-02 13:43:34

UŽIVAJTE!
Trenutno še ni nobenega komentarja.
Nič ni najdeno.