The.Zookeepers.Wife.2017.SLOSubs.720p.BRRip.X264.AC3-R77

Klikni za povečavo!
31-12-2020 10:21 naložil rado77
Sejalci: 1 / Odjemalci: 0 / Velikost: 2.77 GB / Dokončani: 0
Prenesi torrent Poročaj torrent Opis torrenta
Kategorija: FILMI >  BRRip

The.Zookeepers.Wife.2017.SLOSubs.720p.BRRip.X264.AC3-R77


The Zookeeper's Wife (2017)

ŽENA ČUVAJA ŽIVALSKEGA VRTA


Direktor: Niki Caro
Pisatelji: Angela Workman (scenarij), Diane Ackerman (po knjigi avtorja)
Igrajo: Jessica Chastain, Johan Heldenbergh, Daniel Brühl
Žanri: Biografija, Drama, Zgodovina, Vojna
Podnapisi: Slovenski


Zgodba:

Ko se vojna leta 1939 konča, in medtem ko življenje še teče, Nemci postopoma občutijo svojo prisotnost, Adolf Hitler pa se na skrivaj pripravlja na invazijo na Poljsko. V teh nestanovitnih okoliščinah par Jan Zabinski in Antonina Zabinskanadaljujte z vsakdanjo rutino kot lastniki varšavskega živalskega vrta; vendar se bodo njihova življenjska dela in mesto pretvorili v pepel, ko bodo grozljivi Stuki Luftwaffeja začeli klati prestolnico. Zdaj, ko je živalski vrt likvidiran zaradi vojnih prizadevanj in številne njegove živali, ki so tragično umrle, je bila nekoč zverinja, zdaj bo služila kot svetišče, kjer bo par veterinarjev lahko na vidnem mestu skril preganjano poljsko-judovsko ljudstvo. To je bil dejansko nevaren načrt dveh altruistov, ki sta se, ne glede na posledice, pred nacistično grožnjo zavrnila in tristo sovražnih moških, žensk in otrok zaščitila pred nosom. Se bo svet spomnil žene čuvarja živalskega vrta? Napisal Nick Riganas
PO RESNIČNIH DOGODKIH!

Podrobnosti:

Država: Češka | Združeno kraljestvo | ZDA
Jezik: Angleščina | Nemščina | Hebrejščina
Datum izdaje:31. marec 2017 (Češka)
Lokacije snemanja: Praga, Češka
Izvajanje: 127 min

Tehnične specifikacije:

Complete name : The.Zookeepers.Wife.2017.SLOSubs.720p.BRRip.X264.AC3-R77\The.Zookeepers.Wife.2017.SLOSubs.720p.BRRip.X264.AC3-R77.mkv
Format : Matroska
Format version : Version 4
File size : 2.77 GiB
Duration : 2 h 6 min
Overall bit rate : 3 131 kb/s
Encoded date : UTC 2017-06-19 22:35:15 / UTC 2017-06-19T22:16:33Z
Writing application : mkvmerge v6.7.0 ('Back to the Ground') 64bit built on Jan 8 2014 15:10:52
Writing library : libebml v1.3.0 + libmatroska v1.4.1 / Lavf55.12.0

Video
ID : 1
Format : AVC
Format/Info : Advanced Video Codec
Format profile : High@L4.1
Format settings : CABAC / 4 Ref Frames
Format settings, CABAC : Yes
Format settings, Reference frames : 4 frames
Codec ID : V_MPEG4/ISO/AVC
Duration : 2 h 6 min
Bit rate : 2 700 kb/s
Width : 1 280 pixels
Height : 536 pixels
Display aspect ratio : 2.40:1
Frame rate mode : Constant
Frame rate : 23.976 (24000/1001) FPS
Color space : YUV
Chroma subsampling : 4:2:0
Bit depth : 8 bits
Scan type : Progressive
Bits/(Pixel*Frame) : 0.164
Stream size : 2.32 GiB (84%)
Writing library : x264 core 142 r2479 dd79a61
Default : Yes
Forced : No
Color range : Limited
Color primaries : BT.709
Transfer characteristics : BT.709
Matrix coefficients : BT.709

Audio
ID : 2
Format : AC-3
Format/Info : Audio Coding 3
Commercial name : Dolby Digital
Codec ID : A_AC3
Duration : 2 h 6 min
Bit rate mode : Constant
Bit rate : 448 kb/s
Channel(s) : 6 channels
Channel layout : L R C LFE Ls Rs
Sampling rate : 48.0 kHz
Frame rate : 31.250 FPS (1536 SPF)
Compression mode : Lossy
Delay relative to video : -5 ms
Stream size : 405 MiB (14%)
Title : Surround
Language : English
Service kind : Complete Main
Default : Yes
Forced : No

UŽIVAJTE!
Ziva in apathy je to všeč.
Tagi za tale torrent: Biografija, Drama, Zgodovina, Vojna
Delite na socialnem omrežju
The.Zookeepers.Wife.2017.SLOSubs.720p.BRRip.X264.AC3-R77


The Zookeeper's Wife (2017)

ŽENA ČUVAJA ŽIVALSKEGA VRTA


Direktor: Niki Caro
Pisatelji: Angela Workman (scenarij), Diane Ackerman (po knjigi avtorja)
Igrajo: Jessica Chastain, Johan Heldenbergh, Daniel Brühl
Žanri: Biografija, Drama, Zgodovina, Vojna
Podnapisi: Slovenski


Zgodba:

Ko se vojna leta 1939 konča, in medtem ko življenje še teče, Nemci postopoma občutijo svojo prisotnost, Adolf Hitler pa se na skrivaj pripravlja na invazijo na Poljsko. V teh nestanovitnih okoliščinah par Jan Zabinski in Antonina Zabinskanadaljujte z vsakdanjo rutino kot lastniki varšavskega živalskega vrta; vendar se bodo njihova življenjska dela in mesto pretvorili v pepel, ko bodo grozljivi Stuki Luftwaffeja začeli klati prestolnico. Zdaj, ko je živalski vrt likvidiran zaradi vojnih prizadevanj in številne njegove živali, ki so tragično umrle, je bila nekoč zverinja, zdaj bo služila kot svetišče, kjer bo par veterinarjev lahko na vidnem mestu skril preganjano poljsko-judovsko ljudstvo. To je bil dejansko nevaren načrt dveh altruistov, ki sta se, ne glede na posledice, pred nacistično grožnjo zavrnila in tristo sovražnih moških, žensk in otrok zaščitila pred nosom. Se bo svet spomnil žene čuvarja živalskega vrta? Napisal Nick Riganas
PO RESNIČNIH DOGODKIH!

Podrobnosti:

Država: Češka | Združeno kraljestvo | ZDA
Jezik: Angleščina | Nemščina | Hebrejščina
Datum izdaje:31. marec 2017 (Češka)
Lokacije snemanja: Praga, Češka
Izvajanje: 127 min

Tehnične specifikacije:

Complete name : The.Zookeepers.Wife.2017.SLOSubs.720p.BRRip.X264.AC3-R77\The.Zookeepers.Wife.2017.SLOSubs.720p.BRRip.X264.AC3-R77.mkv
Format : Matroska
Format version : Version 4
File size : 2.77 GiB
Duration : 2 h 6 min
Overall bit rate : 3 131 kb/s
Encoded date : UTC 2017-06-19 22:35:15 / UTC 2017-06-19T22:16:33Z
Writing application : mkvmerge v6.7.0 ('Back to the Ground') 64bit built on Jan 8 2014 15:10:52
Writing library : libebml v1.3.0 + libmatroska v1.4.1 / Lavf55.12.0

Video
ID : 1
Format : AVC
Format/Info : Advanced Video Codec
Format profile : High@L4.1
Format settings : CABAC / 4 Ref Frames
Format settings, CABAC : Yes
Format settings, Reference frames : 4 frames
Codec ID : V_MPEG4/ISO/AVC
Duration : 2 h 6 min
Bit rate : 2 700 kb/s
Width : 1 280 pixels
Height : 536 pixels
Display aspect ratio : 2.40:1
Frame rate mode : Constant
Frame rate : 23.976 (24000/1001) FPS
Color space : YUV
Chroma subsampling : 4:2:0
Bit depth : 8 bits
Scan type : Progressive
Bits/(Pixel*Frame) : 0.164
Stream size : 2.32 GiB (84%)
Writing library : x264 core 142 r2479 dd79a61
Default : Yes
Forced : No
Color range : Limited
Color primaries : BT.709
Transfer characteristics : BT.709
Matrix coefficients : BT.709

Audio
ID : 2
Format : AC-3
Format/Info : Audio Coding 3
Commercial name : Dolby Digital
Codec ID : A_AC3
Duration : 2 h 6 min
Bit rate mode : Constant
Bit rate : 448 kb/s
Channel(s) : 6 channels
Channel layout : L R C LFE Ls Rs
Sampling rate : 48.0 kHz
Frame rate : 31.250 FPS (1536 SPF)
Compression mode : Lossy
Delay relative to video : -5 ms
Stream size : 405 MiB (14%)
Title : Surround
Language : English
Service kind : Complete Main
Default : Yes
Forced : No

UŽIVAJTE!
Trenutno še ni nobenega komentarja.
Nič ni najdeno.